  0
SECTION
  2
HEADER
  9
$ACADVER
  1
AC1018
  9
$ACADMAINTVER
 70
     0
  9
$DWGCODEPAGE
  3
ANSI_1252
  9
$INSBASE
 10
0.0
 20
0.0
 30
0.0
  9
$EXTMIN
 10
-244.037669747061
 20
2.28207210725108
 30
0.0
  9
$EXTMAX
 10
52.96233025293711
 20
212.2820721072511
 30
0.0
  9
$LIMMIN
 10
0.0
 20
0.0
  9
$LIMMAX
 10
12.0
 20
9.0
  9
$ORTHOMODE
 70
     0
  9
$REGENMODE
 70
     1
  9
$FILLMODE
 70
     1
  9
$QTEXTMODE
 70
     0
  9
$MIRRTEXT
 70
     1
  9
$LTSCALE
 40
1.0
  9
$ATTMODE
 70
     1
  9
$TEXTSIZE
 40
0.2
  9
$TRACEWID
 40
0.05
  9
$TEXTSTYLE
  7
Standard
  9
$CLAYER
  8
0
  9
$CELTYPE
  6
ByLayer
  9
$CECOLOR
 62
   256
  9
$CELTSCALE
 40
1.0
  9
$DISPSILH
 70
     0
  9
$DIMSCALE
 40
1.0
  9
$DIMASZ
 40
0.18
  9
$DIMEXO
 40
0.0625
  9
$DIMDLI
 40
0.38
  9
$DIMRND
 40
0.0
  9
$DIMDLE
 40
0.0
  9
$DIMEXE
 40
0.18
  9
$DIMTP
 40
0.0
  9
$DIMTM
 40
0.0
  9
$DIMTXT
 40
0.18
  9
$DIMCEN
 40
0.09
  9
$DIMTSZ
 40
0.0
  9
$DIMTOL
 70
     0
  9
$DIMLIM
 70
     0
  9
$DIMTIH
 70
     1
  9
$DIMTOH
 70
     1
  9
$DIMSE1
 70
     0
  9
$DIMSE2
 70
     0
  9
$DIMTAD
 70
     0
  9
$DIMZIN
 70
     0
  9
$DIMBLK
  1

  9
$DIMASO
 70
     1
  9
$DIMSHO
 70
     1
  9
$DIMPOST
  1

  9
$DIMAPOST
  1

  9
$DIMALT
 70
     0
  9
$DIMALTD
 70
     2
  9
$DIMALTF
 40
25.4
  9
$DIMLFAC
 40
1.0
  9
$DIMTOFL
 70
     0
  9
$DIMTVP
 40
0.0
  9
$DIMTIX
 70
     0
  9
$DIMSOXD
 70
     0
  9
$DIMSAH
 70
     0
  9
$DIMBLK1
  1

  9
$DIMBLK2
  1

  9
$DIMSTYLE
  2
Standard
  9
$DIMCLRD
 70
     0
  9
$DIMCLRE
 70
     0
  9
$DIMCLRT
 70
     0
  9
$DIMTFAC
 40
1.0
  9
$DIMGAP
 40
0.09
  9
$DIMJUST
 70
     0
  9
$DIMSD1
 70
     0
  9
$DIMSD2
 70
     0
  9
$DIMTOLJ
 70
     1
  9
$DIMTZIN
 70
     0
  9
$DIMALTZ
 70
     0
  9
$DIMALTTZ
 70
     0
  9
$DIMUPT
 70
     0
  9
$DIMDEC
 70
     4
  9
$DIMTDEC
 70
     4
  9
$DIMALTU
 70
     2
  9
$DIMALTTD
 70
     2
  9
$DIMTXSTY
  7
Standard
  9
$DIMAUNIT
 70
     0
  9
$DIMADEC
 70
     0
  9
$DIMALTRND
 40
0.0
  9
$DIMAZIN
 70
     0
  9
$DIMDSEP
 70
    46
  9
$DIMATFIT
 70
     3
  9
$DIMFRAC
 70
     0
  9
$DIMLDRBLK
  1

  9
$DIMLUNIT
 70
     2
  9
$DIMLWD
 70
    -2
  9
$DIMLWE
 70
    -2
  9
$DIMTMOVE
 70
     0
  9
$LUNITS
 70
     2
  9
$LUPREC
 70
     4
  9
$SKETCHINC
 40
0.1
  9
$FILLETRAD
 40
0.5
  9
$AUNITS
 70
     0
  9
$AUPREC
 70
     0
  9
$MENU
  1
.
  9
$ELEVATION
 40
0.0
  9
$PELEVATION
 40
0.0
  9
$THICKNESS
 40
0.0
  9
$LIMCHECK
 70
     0
  9
$CHAMFERA
 40
0.0
  9
$CHAMFERB
 40
0.0
  9
$CHAMFERC
 40
0.0
  9
$CHAMFERD
 40
0.0
  9
$SKPOLY
 70
     0
  9
$TDCREATE
 40
2459787.556555336
  9
$TDUCREATE
 40
2459787.473222002
  9
$TDUPDATE
 40
2459787.556555509
  9
$TDUUPDATE
 40
2459787.473222176
  9
$TDINDWG
 40
0.0000000116
  9
$TDUSRTIMER
 40
0.0000000116
  9
$USRTIMER
 70
     1
  9
$ANGBASE
 50
0.0
  9
$ANGDIR
 70
     0
  9
$PDMODE
 70
     0
  9
$PDSIZE
 40
0.0
  9
$PLINEWID
 40
0.0
  9
$SPLFRAME
 70
     0
  9
$SPLINETYPE
 70
     6
  9
$SPLINESEGS
 70
     8
  9
$HANDSEED
  5
2A1
  9
$SURFTAB1
 70
     6
  9
$SURFTAB2
 70
     6
  9
$SURFTYPE
 70
     6
  9
$SURFU
 70
     6
  9
$SURFV
 70
     6
  9
$UCSBASE
  2

  9
$UCSNAME
  2

  9
$UCSORG
 10
0.0
 20
0.0
 30
0.0
  9
$UCSXDIR
 10
1.0
 20
0.0
 30
0.0
  9
$UCSYDIR
 10
0.0
 20
1.0
 30
0.0
  9
$UCSORTHOREF
  2

  9
$UCSORTHOVIEW
 70
     0
  9
$UCSORGTOP
 10
0.0
 20
0.0
 30
0.0
  9
$UCSORGBOTTOM
 10
0.0
 20
0.0
 30
0.0
  9
$UCSORGLEFT
 10
0.0
 20
0.0
 30
0.0
  9
$UCSORGRIGHT
 10
0.0
 20
0.0
 30
0.0
  9
$UCSORGFRONT
 10
0.0
 20
0.0
 30
0.0
  9
$UCSORGBACK
 10
0.0
 20
0.0
 30
0.0
  9
$PUCSBASE
  2

  9
$PUCSNAME
  2

  9
$PUCSORG
 10
0.0
 20
0.0
 30
0.0
  9
$PUCSXDIR
 10
1.0
 20
0.0
 30
0.0
  9
$PUCSYDIR
 10
0.0
 20
1.0
 30
0.0
  9
$PUCSORTHOREF
  2

  9
$PUCSORTHOVIEW
 70
     0
  9
$PUCSORGTOP
 10
0.0
 20
0.0
 30
0.0
  9
$PUCSORGBOTTOM
 10
0.0
 20
0.0
 30
0.0
  9
$PUCSORGLEFT
 10
0.0
 20
0.0
 30
0.0
  9
$PUCSORGRIGHT
 10
0.0
 20
0.0
 30
0.0
  9
$PUCSORGFRONT
 10
0.0
 20
0.0
 30
0.0
  9
$PUCSORGBACK
 10
0.0
 20
0.0
 30
0.0
  9
$USERI1
 70
     0
  9
$USERI2
 70
     0
  9
$USERI3
 70
     0
  9
$USERI4
 70
     0
  9
$USERI5
 70
     0
  9
$USERR1
 40
20.1
  9
$USERR2
 40
0.0
  9
$USERR3
 40
0.0
  9
$USERR4
 40
0.0
  9
$USERR5
 40
0.0
  9
$WORLDVIEW
 70
     1
  9
$SHADEDGE
 70
     3
  9
$SHADEDIF
 70
    70
  9
$TILEMODE
 70
     1
  9
$MAXACTVP
 70
    64
  9
$PINSBASE
 10
0.0
 20
0.0
 30
0.0
  9
$PLIMCHECK
 70
     0
  9
$PEXTMIN
 10
1.00000000000000E+20
 20
1.00000000000000E+20
 30
1.00000000000000E+20
  9
$PEXTMAX
 10
-1.00000000000000E+20
 20
-1.00000000000000E+20
 30
-1.00000000000000E+20
  9
$PLIMMIN
 10
0.0
 20
0.0
  9
$PLIMMAX
 10
12.0
 20
9.0
  9
$UNITMODE
 70
     0
  9
$VISRETAIN
 70
     1
  9
$PLINEGEN
 70
     0
  9
$PSLTSCALE
 70
     1
  9
$TREEDEPTH
 70
  3020
  9
$CMLSTYLE
  2
Standard
  9
$CMLJUST
 70
     0
  9
$CMLSCALE
 40
1.0
  9
$PROXYGRAPHICS
 70
     1
  9
$MEASUREMENT
 70
     1
  9
$CELWEIGHT
370
    -1
  9
$ENDCAPS
280
     0
  9
$JOINSTYLE
280
     0
  9
$LWDISPLAY
290
     0
  9
$INSUNITS
 70
     4
  9
$HYPERLINKBASE
  1

  9
$STYLESHEET
  1

  9
$XEDIT
290
     1
  9
$CEPSNTYPE
380
     0
  9
$PSTYLEMODE
290
     1
  9
$FINGERPRINTGUID
  2
{90a35fed-15f3-4257-81d6-ea5a13b645b2}
  9
$VERSIONGUID
  2
{FAEB1C32-E019-11D5-929B-00C0DF256EC4}
  9
$EXTNAMES
290
     1
  9
$PSVPSCALE
 40
0.0
  9
$OLESTARTUP
290
     0
  9
$SORTENTS
280
   127
  9
$INDEXCTL
280
     0
  9
$HIDETEXT
280
     1
  9
$XCLIPFRAME
290
     0
  9
$HALOGAP
280
     0
  9
$OBSCOLOR
 70
   257
  9
$OBSLTYPE
280
     0
  9
$INTERSECTIONDISPLAY
280
     0
  9
$INTERSECTIONCOLOR
 70
   257
  9
$DIMASSOC
280
     2
  9
$PROJECTNAME
  1

  0
ENDSEC
  0
SECTION
  2
CLASSES
  0
CLASS
  1
ACDBDICTIONARYWDFLT
  2
AcDbDictionaryWithDefault
  3
ObjectDBX Classes
 90
        0
 91
        3
280
     0
281
     0
  0
CLASS
  1
VISUALSTYLE
  2
AcDbVisualStyle
  3
ObjectDBX Classes
 90
     4095
 91
        3
280
     0
281
     0
  0
CLASS
  1
MATERIAL
  2
AcDbMaterial
  3
ObjectDBX Classes
 90
     1153
 91
        3
280
     0
281
     0
  0
CLASS
  1
SCALE
  2
AcDbScale
  3
ObjectDBX Classes
 90
     1153
 91
        3
280
     0
281
     0
  0
CLASS
  1
TABLESTYLE
  2
AcDbTableStyle
  3
ObjectDBX Classes
 90
     4095
 91
        3
280
     0
281
     0
  0
CLASS
  1
MLEADERSTYLE
  2
AcDbMLeaderStyle
  3
ACDB_MLEADERSTYLE_CLASS
 90
     4095
 91
        3
280
     0
281
     0
  0
CLASS
  1
SUN
  2
AcDbSun
  3
SCENEOE
 90
     1153
 91
        3
280
     0
281
     0
  0
CLASS
  1
DICTIONARYVAR
  2
AcDbDictionaryVar
  3
ObjectDBX Classes
 90
        0
 91
        3
280
     0
281
     0
  0
CLASS
  1
CELLSTYLEMAP
  2
AcDbCellStyleMap
  3
ObjectDBX Classes
 90
     1152
 91
        3
280
     0
281
     0
  0
ENDSEC
  0
SECTION
  2
TABLES
  0
TABLE
  2
VPORT
  5
8
102
{ACAD_XDICTIONARY
360
25A
102
}
330
0
100
AcDbSymbolTable
 70
     1
  0
VPORT
  5
29
330
8
100
AcDbSymbolTableRecord
100
AcDbViewportTableRecord
  2
*Active
 70
     0
 10
0.0
 20
0.0
 11
1.0
 21
1.0
 12
-95.53766974706194
 22
107.2820721072511
 13
0.0
 23
0.0
 14
0.5
 24
0.5
 15
0.5
 25
0.5
 16
0.0
 26
0.0
 36
1.0
 17
0.0
 27
0.0
 37
0.0
 40
231.0000000000001
 41
1.60267857142857
 42
50.0
 43
0.0
 44
0.0
 50
0.0
 51
0.0
 71
     0
 72
   100
 73
     1
 74
     3
 75
     0
 76
     0
 77
     0
 78
     0
281
     0
 65
     1
110
0.0
120
0.0
130
0.0
111
1.0
121
0.0
131
0.0
112
0.0
122
1.0
132
0.0
 79
     0
146
0.0
  0
ENDTAB
  0
TABLE
  2
LTYPE
  5
5
330
0
100
AcDbSymbolTable
 70
     8
  0
LTYPE
  5
14
330
5
100
AcDbSymbolTableRecord
100
AcDbLinetypeTableRecord
  2
ByBlock
 70
     0
  3

 72
    65
 73
     0
 40
0.0
  0
LTYPE
  5
15
330
5
100
AcDbSymbolTableRecord
100
AcDbLinetypeTableRecord
  2
ByLayer
 70
     0
  3

 72
    65
 73
     0
 40
0.0
  0
LTYPE
  5
16
330
5
100
AcDbSymbolTableRecord
100
AcDbLinetypeTableRecord
  2
Continuous
 70
     0
  3
Solid line
 72
    65
 73
     0
 40
0.0
  0
LTYPE
  5
6E
330
5
100
AcDbSymbolTableRecord
100
AcDbLinetypeTableRecord
  2
DASHED
 70
     0
  3
Dashed
 72
    65
 73
     2
 40
15.0
 49
7.0
 74
     0
 49
-8.0
 74
     0
  0
LTYPE
  5
6F
330
5
100
AcDbSymbolTableRecord
100
AcDbLinetypeTableRecord
  2
DOTTED
 70
     0
  3
Dotted
 72
    65
 73
     2
 40
1.0
 49
0.0
 74
     0
 49
-1.0
 74
     0
  0
LTYPE
  5
70
330
5
100
AcDbSymbolTableRecord
100
AcDbLinetypeTableRecord
  2
DOT_CENTER
 70
     0
  3
Dot_Center
 72
    65
 73
     4
 40
14.0
 49
12.0
 74
     0
 49
-1.0
 74
     0
 49
0.0
 74
     0
 49
-1.0
 74
     0
  0
LTYPE
  5
71
330
5
100
AcDbSymbolTableRecord
100
AcDbLinetypeTableRecord
  2
LONG_DASHED
 70
     0
  3
Long_Dashed
 72
    65
 73
     2
 40
15.0
 49
10.0
 74
     0
 49
-5.0
 74
     0
  0
LTYPE
  5
72
330
5
100
AcDbSymbolTableRecord
100
AcDbLinetypeTableRecord
  2
DASH_CENTER
 70
     0
  3
Dash_Center
 72
    65
 73
     4
 40
14.0
 49
11.0
 74
     0
 49
-1.0
 74
     0
 49
1.0
 74
     0
 49
-1.0
 74
     0
  0
LTYPE
  5
73
330
5
100
AcDbSymbolTableRecord
100
AcDbLinetypeTableRecord
  2
PHANTOM
 70
     0
  3
Phantom
 72
    65
 73
     6
 40
13.0
 49
10.0
 74
     0
 49
-1.0
 74
     0
 49
0.0
 74
     0
 49
-1.0
 74
     0
 49
0.0
 74
     0
 49
-1.0
 74
     0
  0
LTYPE
  5
74
330
5
100
AcDbSymbolTableRecord
100
AcDbLinetypeTableRecord
  2
CENTER_DASH_DASH
 70
     0
  3
Center_Dash_Dash
 72
    65
 73
     6
 40
14.0
 49
9.0
 74
     0
 49
-1.0
 74
     0
 49
1.0
 74
     0
 49
-1.0
 74
     0
 49
1.0
 74
     0
 49
-1.0
 74
     0
  0
ENDTAB
  0
TABLE
  2
LAYER
  5
2
330
0
100
AcDbSymbolTable
 70
     2
  0
LAYER
  5
10
330
2
100
AcDbSymbolTableRecord
100
AcDbLayerTableRecord
  2
0
 70
     0
 62
     7
  6
Continuous
370
    -3
390
F
  0
LAYER
  5
75
330
2
100
AcDbSymbolTableRecord
100
AcDbLayerTableRecord
  2
1
 70
     0
 62
     7
  6
Continuous
370
    -3
390
F
  0
ENDTAB
  0
TABLE
  2
STYLE
  5
3
330
0
100
AcDbSymbolTable
 70
     5
  0
STYLE
  5
11
330
3
100
AcDbSymbolTableRecord
100
AcDbTextStyleTableRecord
  2
Standard
 70
     0
 40
0.0
 41
1.0
 50
0.0
 71
     0
 42
0.2
  3
txt
  4

  0
STYLE
  5
CC
330
3
100
AcDbSymbolTableRecord
100
AcDbTextStyleTableRecord
  2
CONVERTER_11
 70
     0
 40
0.0
 41
0.9
 50
0.0
 71
     0
 42
0.2
  3
txt.shx
  4

  0
STYLE
  5
229
330
3
100
AcDbSymbolTableRecord
100
AcDbTextStyleTableRecord
  2
CONVERTER_12
 70
     0
 40
0.0
 41
0.81
 50
0.0
 71
     0
 42
0.2
  3
txt.shx
  4

  0
STYLE
  5
22B
330
3
100
AcDbSymbolTableRecord
100
AcDbTextStyleTableRecord
  2
CONVERTER_13
 70
     0
 40
0.0
 41
0.72
 50
0.0
 71
     0
 42
0.2
  3
txt.shx
  4

  0
STYLE
  5
23E
330
3
100
AcDbSymbolTableRecord
100
AcDbTextStyleTableRecord
  2
CONVERTER_14
 70
     0
 40
0.0
 41
0.855
 50
0.0
 71
     0
 42
0.2
  3
txt.shx
  4

  0
ENDTAB
  0
TABLE
  2
VIEW
  5
6
330
0
100
AcDbSymbolTable
 70
     0
  0
ENDTAB
  0
TABLE
  2
UCS
  5
7
330
0
100
AcDbSymbolTable
 70
     0
  0
ENDTAB
  0
TABLE
  2
APPID
  5
9
330
0
100
AcDbSymbolTable
 70
     2
  0
APPID
  5
12
330
9
100
AcDbSymbolTableRecord
100
AcDbRegAppTableRecord
  2
ACAD
 70
     0
  0
APPID
  5
299
330
9
100
AcDbSymbolTableRecord
100
AcDbRegAppTableRecord
  2
ACAD_MLEADERVER
 70
     0
  0
ENDTAB
  0
TABLE
  2
DIMSTYLE
  5
A
330
0
100
AcDbSymbolTable
 70
     5
100
AcDbDimStyleTable
  0
DIMSTYLE
105
27
330
A
100
AcDbSymbolTableRecord
100
AcDbDimStyleTableRecord
  2
Standard
 70
     0
178
     0
340
11
  0
DIMSTYLE
105
D0
102
{ACAD_REACTORS
330
D1
102
}
330
A
100
AcDbSymbolTableRecord
100
AcDbDimStyleTableRecord
  2
ME10_DIM_10
 70
     0
 41
1.75
 42
0.25
 44
0.75
 73
     0
 74
     0
 77
     1
 78
     8
140
1.75
147
1.0
172
     1
173
     1
174
     1
175
     1
176
     2
177
     2
178
     3
340
CC
  0
DIMSTYLE
105
DB
102
{ACAD_REACTORS
330
DC
102
}
330
A
100
AcDbSymbolTableRecord
100
AcDbDimStyleTableRecord
  2
ME10_DIM_11
 70
     0
 41
1.75
 42
0.25
 44
0.75
 73
     0
 74
     0
 77
     1
 78
     8
140
1.75
147
1.0
172
     1
173
     1
174
     1
175
     1
176
     2
177
     2
178
     3
340
CC
  0
DIMSTYLE
105
FF
102
{ACAD_REACTORS
330
100
102
}
330
A
100
AcDbSymbolTableRecord
100
AcDbDimStyleTableRecord
  2
ME10_DIM_12
 70
     0
 41
1.75
 42
0.25
 44
0.75
 73
     0
 74
     0
 77
     1
 78
     8
140
1.75
147
1.0
172
     1
173
     1
174
     1
175
     1
176
     2
177
     2
178
     3
340
CC
  0
DIMSTYLE
105
11E
102
{ACAD_REACTORS
330
11F
102
}
330
A
100
AcDbSymbolTableRecord
100
AcDbDimStyleTableRecord
  2
ME10_DIM_13
 70
     0
 41
1.75
 42
0.25
 44
0.75
 73
     0
 74
     0
 77
     1
 78
     8
140
1.75
147
1.0
172
     1
173
     1
174
     1
175
     1
176
     2
177
     2
178
     3
340
CC
  0
ENDTAB
  0
TABLE
  2
BLOCK_RECORD
  5
1
330
0
100
AcDbSymbolTable
 70
    21
  0
BLOCK_RECORD
  5
1F
330
1
100
AcDbSymbolTableRecord
100
AcDbBlockTableRecord
  2
*Model_Space
340
22
  0
BLOCK_RECORD
  5
1B
330
1
100
AcDbSymbolTableRecord
100
AcDbBlockTableRecord
  2
*Paper_Space
340
1E
  0
BLOCK_RECORD
  5
23
330
1
100
AcDbSymbolTableRecord
100
AcDbBlockTableRecord
  2
*Paper_Space0
340
26
  0
BLOCK_RECORD
  5
76
330
1
100
AcDbSymbolTableRecord
100
AcDbBlockTableRecord
  2
UCT-WMT_18x4-SELECT__1
340
0
102
{BLKREFS
331
7A
102
}
  0
BLOCK_RECORD
  5
79
330
1
100
AcDbSymbolTableRecord
100
AcDbBlockTableRecord
  2
Back1
340
0
102
{BLKREFS
331
AC
102
}
  0
BLOCK_RECORD
  5
7D
330
1
100
AcDbSymbolTableRecord
100
AcDbBlockTableRecord
  2
UCT-WMT_18x4-SELECT__2
340
0
102
{BLKREFS
331
81
102
}
  0
BLOCK_RECORD
  5
80
330
1
100
AcDbSymbolTableRecord
100
AcDbBlockTableRecord
  2
Front1
340
0
102
{BLKREFS
331
AD
102
}
  0
BLOCK_RECORD
  5
84
330
1
100
AcDbSymbolTableRecord
100
AcDbBlockTableRecord
  2
UCT-WMT_18x4-SELECT__3
340
0
102
{BLKREFS
331
88
102
}
  0
BLOCK_RECORD
  5
87
330
1
100
AcDbSymbolTableRecord
100
AcDbBlockTableRecord
  2
Gen1
340
0
102
{BLKREFS
331
AE
102
}
  0
BLOCK_RECORD
  5
8B
330
1
100
AcDbSymbolTableRecord
100
AcDbBlockTableRecord
  2
UCT-WMT_18x4-SELECT__4
340
0
102
{BLKREFS
331
8F
102
}
  0
BLOCK_RECORD
  5
8E
330
1
100
AcDbSymbolTableRecord
100
AcDbBlockTableRecord
  2
Left1
340
0
102
{BLKREFS
331
AF
102
}
  0
BLOCK_RECORD
  5
92
330
1
100
AcDbSymbolTableRecord
100
AcDbBlockTableRecord
  2
UCT-WMT_18x4-SELECT__5
340
0
102
{BLKREFS
331
96
102
}
  0
BLOCK_RECORD
  5
95
330
1
100
AcDbSymbolTableRecord
100
AcDbBlockTableRecord
  2
Right1
340
0
102
{BLKREFS
331
B0
102
}
  0
BLOCK_RECORD
  5
99
330
1
100
AcDbSymbolTableRecord
100
AcDbBlockTableRecord
  2
UCT-WMT_18x4-SELECT__6
340
0
102
{BLKREFS
331
9D
102
}
  0
BLOCK_RECORD
  5
9C
330
1
100
AcDbSymbolTableRecord
100
AcDbBlockTableRecord
  2
Top1
340
0
102
{BLKREFS
331
B1
102
}
  0
BLOCK_RECORD
  5
A0
330
1
100
AcDbSymbolTableRecord
100
AcDbBlockTableRecord
  2
_punkt
340
0
102
{BLKREFS
331
A7
102
}
  0
BLOCK_RECORD
  5
A3
330
1
100
AcDbSymbolTableRecord
100
AcDbBlockTableRecord
  2
_rahmen
340
0
102
{BLKREFS
331
A8
102
}
  0
BLOCK_RECORD
  5
A6
330
1
100
AcDbSymbolTableRecord
100
AcDbBlockTableRecord
  2
A4I_td_st
340
0
102
{BLKREFS
331
B2
102
}
  0
BLOCK_RECORD
  5
AB
330
1
100
AcDbSymbolTableRecord
100
AcDbBlockTableRecord
  2
1
340
0
102
{BLKREFS
331
B5
102
}
  0
BLOCK_RECORD
  5
C4
330
1
100
AcDbSymbolTableRecord
100
AcDbBlockTableRecord
  2
*D17
340
0
  0
BLOCK_RECORD
  5
D2
330
1
100
AcDbSymbolTableRecord
100
AcDbBlockTableRecord
  2
*D18
340
0
  0
BLOCK_RECORD
  5
F4
330
1
100
AcDbSymbolTableRecord
100
AcDbBlockTableRecord
  2
*D19
340
0
  0
BLOCK_RECORD
  5
113
330
1
100
AcDbSymbolTableRecord
100
AcDbBlockTableRecord
  2
*D20
340
0
  0
ENDTAB
  0
ENDSEC
  0
SECTION
  2
BLOCKS
  0
BLOCK
  5
20
330
1F
100
AcDbEntity
  8
0
100
AcDbBlockBegin
  2
*Model_Space
 70
     0
 10
0.0
 20
0.0
 30
0.0
  3
*Model_Space
  1

  0
ENDBLK
  5
21
330
1F
100
AcDbEntity
  8
0
100
AcDbBlockEnd
  0
BLOCK
  5
1C
330
1B
100
AcDbEntity
 67
     1
  8
0
100
AcDbBlockBegin
  2
*Paper_Space
 70
     0
 10
0.0
 20
0.0
 30
0.0
  3
*Paper_Space
  1

  0
ENDBLK
  5
1D
330
1B
100
AcDbEntity
 67
     1
  8
0
100
AcDbBlockEnd
  0
BLOCK
  5
24
330
23
100
AcDbEntity
  8
0
100
AcDbBlockBegin
  2
*Paper_Space0
 70
     0
 10
0.0
 20
0.0
 30
0.0
  3
*Paper_Space0
  1

  0
ENDBLK
  5
25
330
23
100
AcDbEntity
  8
0
100
AcDbBlockEnd
  0
BLOCK
  5
77
330
76
100
AcDbEntity
  8
0
100
AcDbBlockBegin
  2
UCT-WMT_18x4-SELECT__1
 70
     0
 10
-15.92500176963053
 20
75.77500001425338
 30
0.0
  3
UCT-WMT_18x4-SELECT__1
  1

  0
LINE
  5
B6
330
76
100
AcDbEntity
  8
0
  6
Continuous
 62
     7
100
AcDbLine
 10
-15.92500176963053
 20
76.07500002051583
 30
0.0
 11
2.07499823036903
 21
76.07500001414661
 31
0.0
  0
LINE
  5
B7
330
76
100
AcDbEntity
  8
0
  6
Continuous
 62
     7
100
AcDbLine
 10
-15.92500176963053
 20
76.07500002051583
 30
0.0
 11
-15.92500176547812
 21
77.22500002048295
 31
0.0
  0
LINE
  5
B8
330
76
100
AcDbEntity
  8
0
  6
Continuous
 62
     7
100
AcDbLine
 10
2.07499823451609
 20
77.22500001411372
 30
0.0
 11
-15.92500176547812
 21
77.22500002048295
 31
0.0
  0
LINE
  5
B9
330
76
100
AcDbEntity
  8
0
  6
Continuous
 62
     7
100
AcDbLine
 10
2.07499823036903
 20
76.07500001414661
 30
0.0
 11
2.07499823451609
 21
77.22500001411372
 31
0.0
  0
LINE
  5
BA
330
76
100
AcDbEntity
  8
0
  6
Continuous
 62
     7
100
AcDbLine
 10
-15.92500176963053
 20
76.07500002051583
 30
0.0
 11
-15.62500176973732
 21
75.7750000204103
 31
0.0
  0
LINE
  5
BB
330
76
100
AcDbEntity
  8
0
  6
Continuous
 62
     7
100
AcDbLine
 10
1.77499823026432
 20
75.77500001425338
 30
0.0
 11
-15.62500176973732
 21
75.7750000204103
 31
0.0
  0
LINE
  5
BC
330
76
100
AcDbEntity
  8
0
  6
Continuous
 62
     7
100
AcDbLine
 10
1.77499823026432
 20
75.77500001425338
 30
0.0
 11
2.07499823036903
 21
76.07500001414661
 31
0.0
  0
ENDBLK
  5
78
330
76
100
AcDbEntity
  8
0
100
AcDbBlockEnd
  0
BLOCK
  5
7B
330
79
100
AcDbEntity
  8
0
100
AcDbBlockBegin
  2
Back1
 70
     0
 10
-6.924999198264
 20
76.50000000000496
 30
0.0
  3
Back1
  1

  0
INSERT
  5
7A
330
79
100
AcDbEntity
  8
0
100
AcDbBlockReference
  2
UCT-WMT_18x4-SELECT__1
 10
-15.92500176963053
 20
75.77500001425338
 30
0.0
  0
ENDBLK
  5
7C
330
79
100
AcDbEntity
  8
0
100
AcDbBlockEnd
  0
BLOCK
  5
7E
330
7D
100
AcDbEntity
  8
0
100
AcDbBlockBegin
  2
UCT-WMT_18x4-SELECT__2
 70
     0
 10
-70.57499822828196
 20
75.77500001425341
 30
0.0
  3
UCT-WMT_18x4-SELECT__2
  1

  0
LINE
  5
BD
330
7D
100
AcDbEntity
  8
0
  6
Continuous
 62
     7
100
AcDbLine
 10
-70.57499822828196
 20
76.07500001414664
 30
0.0
 11
-52.5749982282838
 21
76.07500002051363
 31
0.0
  0
LINE
  5
BE
330
7D
100
AcDbEntity
  8
0
  6
Continuous
 62
     7
100
AcDbLine
 10
-70.57499822828196
 20
76.07500001414664
 30
0.0
 11
-70.57499822007438
 21
77.22500001411375
 31
0.0
  0
LINE
  5
BF
330
7D
100
AcDbEntity
  8
0
  6
Continuous
 62
     7
100
AcDbLine
 10
-52.57499822008017
 20
77.22500002048298
 30
0.0
 11
-70.57499822007438
 21
77.22500001411375
 31
0.0
  0
LINE
  5
C0
330
7D
100
AcDbEntity
  8
0
  6
Continuous
 62
     7
100
AcDbLine
 10
-52.5749982282838
 20
76.07500002051363
 30
0.0
 11
-52.57499822008017
 21
77.22500002048298
 31
0.0
  0
LINE
  5
C1
330
7D
100
AcDbEntity
  8
0
  6
Continuous
 62
     7
100
AcDbLine
 10
-52.87499822817479
 20
75.77500002041035
 30
0.0
 11
-52.5749982282838
 21
76.07500002051363
 31
0.0
  0
LINE
  5
C2
330
7D
100
AcDbEntity
  8
0
  6
Continuous
 62
     7
100
AcDbLine
 10
-52.87499822817479
 20
75.77500002041035
 30
0.0
 11
-70.27499822817641
 21
75.77500001425341
 31
0.0
  0
LINE
  5
C3
330
7D
100
AcDbEntity
  8
0
  6
Continuous
 62
     7
100
AcDbLine
 10
-70.57499822828196
 20
76.07500001414664
 30
0.0
 11
-70.27499822817641
 21
75.77500001425341
 31
0.0
  0
ENDBLK
  5
7F
330
7D
100
AcDbEntity
  8
0
100
AcDbBlockEnd
  0
BLOCK
  5
82
330
80
100
AcDbEntity
  8
0
100
AcDbBlockBegin
  2
Front1
 70
     0
 10
-61.57500080173604
 20
76.500000000005
 30
0.0
  3
Front1
  1

  0
INSERT
  5
81
330
80
100
AcDbEntity
  8
0
100
AcDbBlockReference
  2
UCT-WMT_18x4-SELECT__2
 10
-70.57499822828196
 20
75.77500001425341
 30
0.0
  0
DIMENSION
  5
D1
330
80
100
AcDbEntity
  8
1
100
AcDbDimension
  2
*D17
 10
-74.49832843563108
 20
77.22500001411375
 30
0.0
 11
-76.46082843563109
 21
81.7100210835285
 31
0.0
 70
    32
  1
<>
 71
     5
 42
-1.0
 53
90.0
  3
ME10_DIM_10
100
AcDbAlignedDimension
 13
-70.27499822817641
 23
75.77500001425341
 33
0.0
 14
-70.57499822007438
 24
77.22500001411375
 34
0.0
 50
90.0
100
AcDbRotatedDimension
  0
DIMENSION
  5
DC
330
80
100
AcDbEntity
  8
1
100
AcDbDimension
  2
*D18
 10
-70.57499822145829
 20
81.13606867383822
 30
0.0
 11
-61.65226661403105
 21
83.0110686769955
 31
0.0
 70
    33
  1
<>
 71
     5
 42
-1.0
 53
0.00013888888889
  3
ME10_DIM_11
100
AcDbAlignedDimension
 13
-52.57499822008017
 23
77.22500002048298
 33
0.0
 14
-70.57499822007438
 24
77.22500001411375
 34
0.0
  0
ENDBLK
  5
83
330
80
100
AcDbEntity
  8
0
100
AcDbBlockEnd
  0
BLOCK
  5
85
330
84
100
AcDbEntity
  8
0
100
AcDbBlockBegin
  2
UCT-WMT_18x4-SELECT__3
 70
     0
 10
-15.33172638283288
 20
36.98343723689894
 30
0.0
  3
UCT-WMT_18x4-SELECT__3
  1

  0
LINE
  5
DD
330
84
100
AcDbEntity
  8
0
  6
Continuous
 62
     7
100
AcDbLine
 10
0.25673088528256
 20
36.98343723689894
 30
0.0
 11
2.3317308852809
 21
38.78043994975049
 31
0.0
  0
LINE
  5
DE
330
84
100
AcDbEntity
  8
0
  6
Continuous
 62
     7
100
AcDbLine
 10
0.25673088528256
 20
36.98343723689894
 30
0.0
 11
0.25673088528259
 21
37.97936645122258
 31
0.0
  0
LINE
  5
DF
330
84
100
AcDbEntity
  8
0
  6
Continuous
 62
     7
100
AcDbLine
 10
2.3317308852809
 20
38.78043994975049
 30
0.0
 11
2.3317308852809
 21
39.7763691640741
 31
0.0
  0
LINE
  5
E0
330
84
100
AcDbEntity
  8
0
  6
Continuous
 62
     7
100
AcDbLine
 10
-13.25672638283454
 20
44.27636916407217
 30
0.0
 11
2.3317308852809
 21
39.7763691640741
 31
0.0
  0
LINE
  5
E1
330
84
100
AcDbEntity
  8
0
  6
Continuous
 62
     7
100
AcDbLine
 10
2.3317308852809
 20
39.7763691640741
 30
0.0
 11
0.25673088528259
 21
37.97936645122258
 31
0.0
  0
LINE
  5
E2
330
84
100
AcDbEntity
  8
0
  6
Continuous
 62
     7
100
AcDbLine
 10
-15.33172638283288
 20
41.483437236897
 30
0.0
 11
-15.33172638283286
 21
42.47936645122065
 31
0.0
  0
LINE
  5
E3
330
84
100
AcDbEntity
  8
0
  6
Continuous
 62
     7
100
AcDbLine
 10
-15.33172638283286
 20
42.47936645122065
 30
0.0
 11
-13.25672638283454
 21
44.27636916407217
 31
0.0
  0
LINE
  5
E4
330
84
100
AcDbEntity
  8
0
  6
Continuous
 62
     7
100
AcDbLine
 10
0.25673088528259
 20
37.97936645122258
 30
0.0
 11
-15.33172638283286
 21
42.47936645122065
 31
0.0
  0
LINE
  5
E5
330
84
100
AcDbEntity
  8
0
  6
Continuous
 62
     7
100
AcDbLine
 10
-15.33172638283288
 20
41.483437236897
 30
0.0
 11
0.25673088528256
 21
36.98343723689894
 31
0.0
  0
ENDBLK
  5
86
330
84
100
AcDbEntity
  8
0
100
AcDbBlockEnd
  0
BLOCK
  5
89
330
87
100
AcDbEntity
  8
0
100
AcDbBlockBegin
  2
Gen1
 70
     0
 10
-6.50000000000509
 20
40.5
 30
0.0
  3
Gen1
  1

  0
INSERT
  5
88
330
87
100
AcDbEntity
  8
0
100
AcDbBlockReference
  2
UCT-WMT_18x4-SELECT__3
 10
-15.33172638283288
 20
36.98343723689894
 30
0.0
  0
ENDBLK
  5
8A
330
87
100
AcDbEntity
  8
0
100
AcDbBlockEnd
  0
BLOCK
  5
8C
330
8B
100
AcDbEntity
  8
0
100
AcDbBlockBegin
  2
UCT-WMT_18x4-SELECT__4
 70
     0
 10
-33.0750000116258
 20
75.77500001425338
 30
0.0
  3
UCT-WMT_18x4-SELECT__4
  1

  0
LINE
  5
E6
330
8B
100
AcDbEntity
  8
0
  6
Continuous
 62
     7
100
AcDbLine
 10
-31.40000001162591
 20
76.07500001414661
 30
0.0
 11
-32.0000000116259
 21
76.07500001414661
 31
0.0
  0
LINE
  5
E7
330
8B
100
AcDbEntity
  8
0
  6
Continuous
 62
     7
100
AcDbLine
 10
-31.40000001162591
 20
76.07500001414661
 30
0.0
 11
-31.40000001266988
 21
75.77500001425338
 31
0.0
  0
LINE
  5
E8
330
8B
100
AcDbEntity
  8
0
  6
Continuous
 62
     7
100
AcDbLine
 10
-32.00000001266987
 20
75.77500001425338
 30
0.0
 11
-32.0000000116259
 21
76.07500001414661
 31
0.0
  0
LINE
  5
E9
330
8B
100
AcDbEntity
  8
0
  6
Continuous
 62
     7
100
AcDbLine
 10
-30.0000000116259
 20
76.07500001414661
 30
0.0
 11
-30.00000001266988
 21
75.77500001425338
 31
0.0
  0
LINE
  5
EA
330
8B
100
AcDbEntity
  8
0
  6
Continuous
 62
     7
100
AcDbLine
 10
-30.6000000126699
 20
75.77500001425338
 30
0.0
 11
-30.60000001162593
 21
76.07500001414661
 31
0.0
  0
LINE
  5
EB
330
8B
100
AcDbEntity
  8
0
  6
Continuous
 62
     7
100
AcDbLine
 10
-28.92500001162864
 20
76.0750000141466
 30
0.0
 11
-30.0000000116259
 21
76.07500001414661
 31
0.0
  0
LINE
  5
EC
330
8B
100
AcDbEntity
  8
0
  6
Continuous
 62
     7
100
AcDbLine
 10
-30.0000000116259
 20
76.07500001414661
 30
0.0
 11
-30.60000001162593
 21
76.07500001414661
 31
0.0
  0
LINE
  5
ED
330
8B
100
AcDbEntity
  8
0
  6
Continuous
 62
     7
100
AcDbLine
 10
-30.60000001162593
 20
76.07500001414661
 30
0.0
 11
-31.40000001162591
 21
76.07500001414661
 31
0.0
  0
LINE
  5
EE
330
8B
100
AcDbEntity
  8
0
  6
Continuous
 62
     7
100
AcDbLine
 10
-30.00000001266988
 20
75.77500001425338
 30
0.0
 11
-30.6000000126699
 21
75.77500001425338
 31
0.0
  0
LINE
  5
EF
330
8B
100
AcDbEntity
  8
0
  6
Continuous
 62
     7
100
AcDbLine
 10
-31.40000001266988
 20
75.77500001425338
 30
0.0
 11
-32.00000001266987
 21
75.77500001425338
 31
0.0
  0
LINE
  5
F0
330
8B
100
AcDbEntity
  8
0
  6
Continuous
 62
     7
100
AcDbLine
 10
-32.0000000116259
 20
76.07500001414661
 30
0.0
 11
-33.0750000116258
 21
76.07500001414661
 31
0.0
  0
LINE
  5
F1
330
8B
100
AcDbEntity
  8
0
  6
Continuous
 62
     7
100
AcDbLine
 10
-33.0750000116258
 20
76.07500001414661
 30
0.0
 11
-33.0750000116258
 21
77.22500001411372
 31
0.0
  0
LINE
  5
F2
330
8B
100
AcDbEntity
  8
0
  6
Continuous
 62
     7
100
AcDbLine
 10
-28.92500001162864
 20
76.0750000141466
 30
0.0
 11
-28.92500001162869
 21
77.22500001411372
 31
0.0
  0
LINE
  5
F3
330
8B
100
AcDbEntity
  8
0
  6
Continuous
 62
     7
100
AcDbLine
 10
-28.92500001162869
 20
77.22500001411372
 30
0.0
 11
-33.0750000116258
 21
77.22500001411372
 31
0.0
  0
ENDBLK
  5
8D
330
8B
100
AcDbEntity
  8
0
100
AcDbBlockEnd
  0
BLOCK
  5
90
330
8E
100
AcDbEntity
  8
0
100
AcDbBlockBegin
  2
Left1
 70
     0
 10
-30.99999999999
 20
76.50000000000496
 30
0.0
  3
Left1
  1

  0
INSERT
  5
8F
330
8E
100
AcDbEntity
  8
0
100
AcDbBlockReference
  2
UCT-WMT_18x4-SELECT__4
 10
-33.0750000116258
 20
75.77500001425338
 30
0.0
  0
DIMENSION
  5
100
330
8E
100
AcDbEntity
  8
1
100
AcDbDimension
  2
*D19
 10
-37.3684004458228
 20
77.22500001411372
 30
0.0
 11
-39.3309004458228
 21
82.08601274524747
 31
0.0
 70
    32
  1
<>
 71
     5
 42
-1.0
 53
90.0
  3
ME10_DIM_12
100
AcDbAlignedDimension
 13
-33.0750000116258
 23
76.07500001414661
 33
0.0
 14
-33.0750000116258
 24
77.22500001411372
 34
0.0
 50
90.0
100
AcDbRotatedDimension
  0
ENDBLK
  5
91
330
8E
100
AcDbEntity
  8
0
100
AcDbBlockEnd
  0
BLOCK
  5
93
330
92
100
AcDbEntity
  8
0
100
AcDbBlockBegin
  2
UCT-WMT_18x4-SELECT__5
 70
     0
 10
-93.22500152920439
 20
75.77500002041035
 30
0.0
  3
UCT-WMT_18x4-SELECT__5
  1

  0
LINE
  5
101
330
92
100
AcDbEntity
  8
0
  6
Continuous
 62
     7
100
AcDbLine
 10
-90.7500015292077
 20
76.07500002051363
 30
0.0
 11
-90.15000152920769
 21
76.07500002051587
 31
0.0
  0
LINE
  5
102
330
92
100
AcDbEntity
  8
0
  6
Continuous
 62
     7
100
AcDbLine
 10
-91.55000152920768
 20
76.07500002051589
 30
0.0
 11
-90.7500015292077
 21
76.07500002051363
 31
0.0
  0
LINE
  5
103
330
92
100
AcDbEntity
  8
0
  6
Continuous
 62
     7
100
AcDbLine
 10
-90.15000152920769
 20
76.07500002051587
 30
0.0
 11
-89.07500152920723
 21
76.07500002051587
 31
0.0
  0
LINE
  5
104
330
92
100
AcDbEntity
  8
0
  6
Continuous
 62
     7
100
AcDbLine
 10
-89.07500152920723
 20
76.07500002051587
 30
0.0
 11
-89.07500152920724
 21
77.22500002048298
 31
0.0
  0
LINE
  5
105
330
92
100
AcDbEntity
  8
0
  6
Continuous
 62
     7
100
AcDbLine
 10
-93.22500152920439
 20
76.07500002051587
 30
0.0
 11
-93.22500152920435
 21
77.22500002048298
 31
0.0
  0
LINE
  5
106
330
92
100
AcDbEntity
  8
0
  6
Continuous
 62
     7
100
AcDbLine
 10
-90.15000153025166
 20
75.77500002041035
 30
0.0
 11
-90.75000153025165
 21
75.77500002041035
 31
0.0
  0
LINE
  5
107
330
92
100
AcDbEntity
  8
0
  6
Continuous
 62
     7
100
AcDbLine
 10
-90.75000153025165
 20
75.77500002041035
 30
0.0
 11
-90.7500015292077
 21
76.07500002051363
 31
0.0
  0
LINE
  5
108
330
92
100
AcDbEntity
  8
0
  6
Continuous
 62
     7
100
AcDbLine
 10
-92.15000152920769
 20
76.07500002051587
 30
0.0
 11
-91.55000152920768
 21
76.07500002051589
 31
0.0
  0
LINE
  5
109
330
92
100
AcDbEntity
  8
0
  6
Continuous
 62
     7
100
AcDbLine
 10
-93.22500152920439
 20
76.07500002051587
 30
0.0
 11
-92.15000152920769
 21
76.07500002051587
 31
0.0
  0
LINE
  5
10A
330
92
100
AcDbEntity
  8
0
  6
Continuous
 62
     7
100
AcDbLine
 10
-90.15000152920769
 20
76.07500002051587
 30
0.0
 11
-90.15000153025166
 21
75.77500002041035
 31
0.0
  0
LINE
  5
10B
330
92
100
AcDbEntity
  8
0
  6
Continuous
 62
     7
100
AcDbLine
 10
-92.15000153025166
 20
75.77500002041035
 30
0.0
 11
-92.15000152920769
 21
76.07500002051587
 31
0.0
  0
LINE
  5
10C
330
92
100
AcDbEntity
  8
0
  6
Continuous
 62
     7
100
AcDbLine
 10
-91.55000153025165
 20
75.77500002041035
 30
0.0
 11
-92.15000153025166
 21
75.77500002041035
 31
0.0
  0
LINE
  5
10D
330
92
100
AcDbEntity
  8
0
  6
Continuous
 62
     7
100
AcDbLine
 10
-91.55000152920768
 20
76.07500002051589
 30
0.0
 11
-91.55000153025165
 21
75.77500002041035
 31
0.0
  0
LINE
  5
10E
330
92
100
AcDbEntity
  8
0
  6
Continuous
 62
     7
100
AcDbLine
 10
-89.07500152920724
 20
77.22500002048298
 30
0.0
 11
-93.22500152920435
 21
77.22500002048298
 31
0.0
  0
ENDBLK
  5
94
330
92
100
AcDbEntity
  8
0
100
AcDbBlockEnd
  0
BLOCK
  5
97
330
95
100
AcDbEntity
  8
0
100
AcDbBlockBegin
  2
Right1
 70
     0
 10
-91.15000160348188
 20
76.500000000005
 30
0.0
  3
Right1
  1

  0
INSERT
  5
96
330
95
100
AcDbEntity
  8
0
100
AcDbBlockReference
  2
UCT-WMT_18x4-SELECT__5
 10
-93.22500152920439
 20
75.77500002041035
 30
0.0
  0
ENDBLK
  5
98
330
95
100
AcDbEntity
  8
0
100
AcDbBlockEnd
  0
BLOCK
  5
9A
330
99
100
AcDbEntity
  8
0
100
AcDbBlockBegin
  2
UCT-WMT_18x4-SELECT__6
 70
     0
 10
-70.57499823451613
 20
54.12499923504691
 30
0.0
  3
UCT-WMT_18x4-SELECT__6
  1

  0
LINE
  5
10F
330
99
100
AcDbEntity
  8
0
  6
Continuous
 62
     7
100
AcDbLine
 10
-52.57499822008017
 20
54.12499929768575
 30
0.0
 11
-70.57499822007438
 21
54.12499923504691
 31
0.0
  0
LINE
  5
110
330
99
100
AcDbEntity
  8
0
  6
Continuous
 62
     7
100
AcDbLine
 10
-70.57499822007438
 20
54.12499923504691
 30
0.0
 11
-70.57499823451613
 21
58.27499923504402
 31
0.0
  0
LINE
  5
111
330
99
100
AcDbEntity
  8
0
  6
Continuous
 62
     7
100
AcDbLine
 10
-52.57499823452191
 20
58.27499929768285
 30
0.0
 11
-52.57499822008017
 21
54.12499929768575
 31
0.0
  0
LINE
  5
112
330
99
100
AcDbEntity
  8
0
  6
Continuous
 62
     7
100
AcDbLine
 10
-70.57499823451613
 20
58.27499923504402
 30
0.0
 11
-52.57499823452191
 21
58.27499929768285
 31
0.0
  0
ENDBLK
  5
9B
330
99
100
AcDbEntity
  8
0
100
AcDbBlockEnd
  0
BLOCK
  5
9E
330
9C
100
AcDbEntity
  8
0
100
AcDbBlockBegin
  2
Top1
 70
     0
 10
-61.57500080173604
 20
56.19999922340822
 30
0.0
  3
Top1
  1

  0
INSERT
  5
9D
330
9C
100
AcDbEntity
  8
0
100
AcDbBlockReference
  2
UCT-WMT_18x4-SELECT__6
 10
-70.57499823451613
 20
54.12499923504691
 30
0.0
  0
DIMENSION
  5
11F
330
9C
100
AcDbEntity
  8
1
100
AcDbDimension
  2
*D20
 10
-74.49832843563108
 20
58.27499923504402
 30
0.0
 11
-76.46082843563109
 21
63.45528723552399
 31
0.0
 70
    32
  1
<>
 71
     5
 42
-1.0
 53
90.0
  3
ME10_DIM_13
100
AcDbAlignedDimension
 13
-70.57499822007438
 23
54.12499923504691
 33
0.0
 14
-70.57499823451613
 24
58.27499923504402
 34
0.0
 50
90.0
100
AcDbRotatedDimension
  0
ENDBLK
  5
9F
330
9C
100
AcDbEntity
  8
0
100
AcDbBlockEnd
  0
BLOCK
  5
A1
330
A0
100
AcDbEntity
  8
0
100
AcDbBlockBegin
  2
_punkt
 70
     0
 10
47.9623302529381
 20
7.28207210725119
 30
0.0
  3
_punkt
  1

  0
LINE
  5
120
330
A0
100
AcDbEntity
  8
1
  6
Continuous
 62
     2
100
AcDbLine
 10
47.9623302529381
 20
7.28207210725119
 30
0.0
 11
52.96233025293711
 21
7.28207210725119
 31
0.0
  0
LINE
  5
121
330
A0
100
AcDbEntity
  8
1
  6
Continuous
 62
     2
100
AcDbLine
 10
47.9623302529381
 20
7.28207210725119
 30
0.0
 11
47.9623302529381
 21
2.28207210725108
 31
0.0
  0
ENDBLK
  5
A2
330
A0
100
AcDbEntity
  8
0
100
AcDbBlockEnd
  0
BLOCK
  5
A4
330
A3
100
AcDbEntity
  8
0
100
AcDbBlockBegin
  2
_rahmen
 70
     0
 10
47.9623302529381
 20
2.28207210725108
 30
0.0
  3
_rahmen
  1

  0
LINE
  5
122
330
A3
100
AcDbEntity
  8
1
  6
Continuous
 62
     6
100
AcDbLine
 10
-195.5376697470619
 20
7.28207210725119
 30
0.0
 11
-239.0376697470599
 21
7.28207210725119
 31
0.0
  0
LINE
  5
123
330
A3
100
AcDbEntity
  8
1
  6
Continuous
 62
     6
100
AcDbLine
 10
-95.53766974706191
 20
7.28207210725119
 30
0.0
 11
-145.537669747062
 21
7.28207210725119
 31
0.0
  0
LINE
  5
124
330
A3
100
AcDbEntity
  8
1
  6
Continuous
 62
     6
100
AcDbLine
 10
-45.5376697470619
 20
7.28207210725119
 30
0.0
 11
4.46233025293811
 21
7.28207210725119
 31
0.0
  0
LINE
  5
125
330
A3
100
AcDbEntity
  8
1
  6
Continuous
 62
     6
100
AcDbLine
 10
47.9623302529381
 20
7.28207210725119
 30
0.0
 11
47.96233025293981
 21
37.03207210725108
 31
0.0
  0
LINE
  5
126
330
A3
100
AcDbEntity
  8
1
  6
Continuous
 62
     2
100
AcDbLine
 10
-244.037669747061
 20
7.28207210725119
 30
0.0
 11
-244.037669747061
 21
2.28207210725108
 31
0.0
  0
LINE
  5
127
330
A3
100
AcDbEntity
  8
1
  6
Continuous
 62
     2
100
AcDbLine
 10
-239.0376697470599
 20
7.28207210725119
 30
0.0
 11
-244.037669747061
 21
7.28207210725119
 31
0.0
  0
LINE
  5
128
330
A3
100
AcDbEntity
  8
1
  6
Continuous
 62
     2
100
AcDbLine
 10
-239.0376697470599
 20
2.28207210725108
 30
0.0
 11
-195.5376697470619
 21
2.28207210725108
 31
0.0
  0
LINE
  5
129
330
A3
100
AcDbEntity
  8
1
  6
Continuous
 62
     2
100
AcDbLine
 10
-239.0376697470599
 20
7.28207210725119
 30
0.0
 11
-239.0376697470599
 21
2.28207210725108
 31
0.0
  0
LINE
  5
12A
330
A3
100
AcDbEntity
  8
1
  6
Continuous
 62
     2
100
AcDbLine
 10
4.46233025293811
 20
2.28207210725108
 30
0.0
 11
-45.5376697470619
 21
2.28207210725108
 31
0.0
  0
LINE
  5
12B
330
A3
100
AcDbEntity
  8
1
  6
Continuous
 62
     2
100
AcDbLine
 10
4.46233025293811
 20
2.28207210725108
 30
0.0
 11
4.46233025293811
 21
7.28207210725119
 31
0.0
  0
LINE
  5
12C
330
A3
100
AcDbEntity
  8
1
  6
Continuous
 62
     2
100
AcDbLine
 10
-45.5376697470619
 20
2.28207210725108
 30
0.0
 11
-45.5376697470619
 21
7.28207210725119
 31
0.0
  0
LINE
  5
12D
330
A3
100
AcDbEntity
  8
1
  6
Continuous
 62
     2
100
AcDbLine
 10
-95.53766974706191
 20
2.28207210725108
 30
0.0
 11
-45.5376697470619
 21
2.28207210725108
 31
0.0
  0
LINE
  5
12E
330
A3
100
AcDbEntity
  8
1
  6
Continuous
 62
     2
100
AcDbLine
 10
-95.53766974706191
 20
2.28207210725108
 30
0.0
 11
-95.53766974706191
 21
7.28207210725119
 31
0.0
  0
LINE
  5
12F
330
A3
100
AcDbEntity
  8
1
  6
Continuous
 62
     2
100
AcDbLine
 10
-145.537669747062
 20
2.28207210725108
 30
0.0
 11
-95.53766974706191
 21
2.28207210725108
 31
0.0
  0
LINE
  5
130
330
A3
100
AcDbEntity
  8
1
  6
Continuous
 62
     2
100
AcDbLine
 10
-145.537669747062
 20
2.28207210725108
 30
0.0
 11
-145.537669747062
 21
7.28207210725119
 31
0.0
  0
LINE
  5
131
330
A3
100
AcDbEntity
  8
1
  6
Continuous
 62
     2
100
AcDbLine
 10
-195.5376697470619
 20
2.28207210725108
 30
0.0
 11
-145.537669747062
 21
2.28207210725108
 31
0.0
  0
LINE
  5
132
330
A3
100
AcDbEntity
  8
1
  6
Continuous
 62
     2
100
AcDbLine
 10
-195.5376697470619
 20
2.28207210725108
 30
0.0
 11
-195.5376697470619
 21
7.28207210725119
 31
0.0
  0
LINE
  5
133
330
A3
100
AcDbEntity
  8
1
  6
Continuous
 62
     6
100
AcDbLine
 10
-239.0376697470601
 20
57.28207210725119
 30
0.0
 11
-239.0376697470599
 21
7.28207210725119
 31
0.0
  0
LINE
  5
134
330
A3
100
AcDbEntity
  8
1
  6
Continuous
 62
     2
100
AcDbLine
 10
-244.037669747061
 20
57.28207210725119
 30
0.0
 11
-244.037669747061
 21
7.28207210725119
 31
0.0
  0
LINE
  5
135
330
A3
100
AcDbEntity
  8
1
  6
Continuous
 62
     2
100
AcDbLine
 10
-244.037669747061
 20
57.28207210725119
 30
0.0
 11
-239.0376697470601
 21
57.28207210725119
 31
0.0
  0
LINE
  5
136
330
A3
100
AcDbEntity
  8
1
  6
Continuous
 62
     6
100
AcDbLine
 10
-239.0376697470604
 20
107.282072107251
 30
0.0
 11
-239.0376697470601
 21
57.28207210725119
 31
0.0
  0
LINE
  5
137
330
A3
100
AcDbEntity
  8
1
  6
Continuous
 62
     2
100
AcDbLine
 10
-244.037669747061
 20
107.282072107251
 30
0.0
 11
-244.037669747061
 21
57.28207210725119
 31
0.0
  0
LINE
  5
138
330
A3
100
AcDbEntity
  8
1
  6
Continuous
 62
     2
100
AcDbLine
 10
-244.037669747061
 20
107.282072107251
 30
0.0
 11
-239.0376697470604
 21
107.282072107251
 31
0.0
  0
LINE
  5
139
330
A3
100
AcDbEntity
  8
1
  6
Continuous
 62
     6
100
AcDbLine
 10
-239.0376697470608
 20
157.2820721072511
 30
0.0
 11
-239.0376697470604
 21
107.282072107251
 31
0.0
  0
LINE
  5
13A
330
A3
100
AcDbEntity
  8
1
  6
Continuous
 62
     2
100
AcDbLine
 10
-244.037669747061
 20
157.2820721072511
 30
0.0
 11
-244.037669747061
 21
107.282072107251
 31
0.0
  0
LINE
  5
13B
330
A3
100
AcDbEntity
  8
1
  6
Continuous
 62
     2
100
AcDbLine
 10
-244.037669747061
 20
157.2820721072511
 30
0.0
 11
-239.0376697470608
 21
157.2820721072511
 31
0.0
  0
LINE
  5
13C
330
A3
100
AcDbEntity
  8
1
  6
Continuous
 62
     6
100
AcDbLine
 10
-239.037669747061
 20
192.2820721072511
 30
0.0
 11
-239.0376697470608
 21
157.2820721072511
 31
0.0
  0
LINE
  5
13D
330
A3
100
AcDbEntity
  8
1
  6
Continuous
 62
     2
100
AcDbLine
 10
-244.037669747061
 20
212.2820721072511
 30
0.0
 11
-244.037669747061
 21
157.2820721072511
 31
0.0
  0
LINE
  5
13E
330
A3
100
AcDbEntity
  8
1
  6
Continuous
 62
     2
100
AcDbLine
 10
-244.037669747061
 20
2.28207210725108
 30
0.0
 11
-239.0376697470599
 21
2.28207210725108
 31
0.0
  0
LINE
  5
13F
330
A3
100
AcDbEntity
  8
1
  6
Continuous
 62
     2
100
AcDbLine
 10
-95.53766974706191
 20
212.2820721072511
 30
0.0
 11
-95.53766974706191
 21
203.0733802625498
 31
0.0
  0
LINE
  5
140
330
A3
100
AcDbEntity
  8
1
  6
Continuous
 62
     2
100
AcDbLine
 10
-95.53766974706191
 20
212.2820721072511
 30
0.0
 11
-244.037669747061
 21
212.2820721072511
 31
0.0
  0
LINE
  5
141
330
A3
100
AcDbEntity
  8
1
  6
Continuous
 62
     2
100
AcDbLine
 10
52.96233025293711
 20
7.28207210725119
 30
0.0
 11
52.96233025293711
 21
57.28207210725119
 31
0.0
  0
LINE
  5
142
330
A3
100
AcDbEntity
  8
1
  6
Continuous
 62
     2
100
AcDbLine
 10
52.96233025293711
 20
157.2820721072511
 30
0.0
 11
52.96233025293711
 21
212.2820721072511
 31
0.0
  0
LINE
  5
143
330
A3
100
AcDbEntity
  8
1
  6
Continuous
 62
     6
100
AcDbLine
 10
47.96233025293739
 20
157.2820721072511
 30
0.0
 11
47.96233025293711
 21
192.2820721072511
 31
0.0
  0
LINE
  5
144
330
A3
100
AcDbEntity
  8
1
  6
Continuous
 62
     2
100
AcDbLine
 10
47.96233025293739
 20
157.2820721072511
 30
0.0
 11
52.96233025293711
 21
157.2820721072511
 31
0.0
  0
LINE
  5
145
330
A3
100
AcDbEntity
  8
1
  6
Continuous
 62
     2
100
AcDbLine
 10
52.96233025293711
 20
107.282072107251
 30
0.0
 11
52.96233025293711
 21
157.2820721072511
 31
0.0
  0
LINE
  5
146
330
A3
100
AcDbEntity
  8
1
  6
Continuous
 62
     6
100
AcDbLine
 10
47.9623302529385
 20
107.282072107251
 30
0.0
 11
47.96233025293739
 21
157.2820721072511
 31
0.0
  0
LINE
  5
147
330
A3
100
AcDbEntity
  8
1
  6
Continuous
 62
     2
100
AcDbLine
 10
47.9623302529385
 20
107.282072107251
 30
0.0
 11
52.96233025293711
 21
107.282072107251
 31
0.0
  0
LINE
  5
148
330
A3
100
AcDbEntity
  8
1
  6
Continuous
 62
     2
100
AcDbLine
 10
52.96233025293711
 20
57.28207210725119
 30
0.0
 11
52.96233025293711
 21
107.282072107251
 31
0.0
  0
LINE
  5
149
330
A3
100
AcDbEntity
  8
1
  6
Continuous
 62
     6
100
AcDbLine
 10
47.96233025293901
 20
57.28207210725119
 30
0.0
 11
47.9623302529385
 21
107.282072107251
 31
0.0
  0
LINE
  5
14A
330
A3
100
AcDbEntity
  8
1
  6
Continuous
 62
     2
100
AcDbLine
 10
47.96233025293901
 20
57.28207210725119
 30
0.0
 11
52.96233025293711
 21
57.28207210725119
 31
0.0
  0
LINE
  5
14B
330
A3
100
AcDbEntity
  8
1
  6
Continuous
 62
     6
100
AcDbLine
 10
47.96233025293711
 20
192.2820721072511
 30
0.0
 11
-239.037669747061
 21
192.2820721072511
 31
0.0
  0
LINE
  5
14C
330
A3
100
AcDbEntity
  8
1
  6
Continuous
 62
     2
100
AcDbLine
 10
52.96233025293711
 20
212.2820721072511
 30
0.0
 11
-95.53766974706191
 21
212.2820721072511
 31
0.0
  0
LINE
  5
14D
330
A3
100
AcDbEntity
  8
1
  6
Continuous
 62
     6
100
AcDbLine
 10
47.96233025293981
 20
37.03207210725108
 30
0.0
 11
47.96233025293901
 21
57.28207210725119
 31
0.0
  0
LINE
  5
14E
330
A3
100
AcDbEntity
  8
1
  6
Continuous
 62
     2
100
AcDbLine
 10
47.9623302529381
 20
2.28207210725108
 30
0.0
 11
4.46233025293811
 21
2.28207210725108
 31
0.0
  0
LINE
  5
14F
330
A3
100
AcDbEntity
  8
1
  6
Continuous
 62
     2
100
AcDbLine
 10
52.96233025293711
 20
2.28207210725108
 30
0.0
 11
47.9623302529381
 21
2.28207210725108
 31
0.0
  0
LINE
  5
150
330
A3
100
AcDbEntity
  8
1
  6
Continuous
 62
     2
100
AcDbLine
 10
52.96233025293711
 20
2.28207210725108
 30
0.0
 11
52.96233025293711
 21
7.28207210725119
 31
0.0
  0
LINE
  5
151
330
A3
100
AcDbEntity
  8
1
  6
Continuous
 62
     2
100
AcDbLine
 10
47.9623302529381
 20
7.28207210725119
 30
0.0
 11
47.9623302529381
 21
2.28207210725108
 31
0.0
  0
LINE
  5
152
330
A3
100
AcDbEntity
  8
1
  6
Continuous
 62
     2
100
AcDbLine
 10
47.9623302529381
 20
7.28207210725119
 30
0.0
 11
52.96233025293711
 21
7.28207210725119
 31
0.0
  0
LINE
  5
153
330
A3
100
AcDbEntity
  8
1
  6
Continuous
 62
     6
100
AcDbLine
 10
-45.5376697470619
 20
7.28207210725119
 30
0.0
 11
-95.53766974706191
 21
7.28207210725119
 31
0.0
  0
LINE
  5
154
330
A3
100
AcDbEntity
  8
1
  6
Continuous
 62
     6
100
AcDbLine
 10
4.46233025293811
 20
7.28207210725119
 30
0.0
 11
47.9623302529381
 21
7.28207210725119
 31
0.0
  0
LINE
  5
155
330
A3
100
AcDbEntity
  8
1
  6
Continuous
 62
     6
100
AcDbLine
 10
-145.537669747062
 20
7.28207210725119
 30
0.0
 11
-195.5376697470619
 21
7.28207210725119
 31
0.0
  0
LINE
  5
156
330
A3
100
AcDbEntity
  8
1
  6
Continuous
 62
     2
100
AcDbLine
 10
-88.70433641372844
 20
7.28207210724875
 30
0.0
 11
-88.70433641372844
 21
7.28207210725165
 31
0.0
  0
LINE
  5
157
330
A3
100
AcDbEntity
  8
1
  6
Continuous
 62
     7
100
AcDbLine
 10
-45.18247427381184
 20
24.28207210725108
 30
0.0
 11
10.84392197126066
 21
24.28207210725108
 31
0.0
  0
LINE
  5
158
330
A3
100
AcDbEntity
  8
1
  6
Continuous
 62
     6
100
AcDbLine
 10
-99.58247427381173
 20
24.28207210725108
 30
0.0
 11
-99.58247427381173
 21
32.78207210725108
 31
0.0
  0
LINE
  5
159
330
A3
100
AcDbEntity
  8
1
  6
Continuous
 62
     7
100
AcDbLine
 10
-35.05607802873894
 20
32.78207210725108
 30
0.0
 11
-35.05607802873894
 21
24.28207210725108
 31
0.0
  0
LINE
  5
15A
330
A3
100
AcDbEntity
  8
1
  6
Continuous
 62
     7
100
AcDbLine
 10
1.44392197126066
 20
32.78207210725108
 30
0.0
 11
1.44392197126066
 21
24.28207210725108
 31
0.0
  0
LINE
  5
15B
102
{ACAD_REACTORS
330
240
330
241
102
}
330
A3
100
AcDbEntity
  8
0
  6
Continuous
 62
     2
100
AcDbLine
 10
-84.87504533204435
 20
16.58236122291439
 30
0.0
 11
-84.87504533204435
 21
17.45487822971765
 31
0.0
  0
LINE
  5
15C
102
{ACAD_REACTORS
330
240
330
241
102
}
330
A3
100
AcDbEntity
  8
0
  6
Continuous
 62
     2
100
AcDbLine
 10
-84.87504533204435
 20
15.62259251543159
 30
0.0
 11
-84.87504533204435
 21
14.75007550862827
 31
0.0
  0
LINE
  5
15D
102
{ACAD_REACTORS
330
242
330
243
102
}
330
A3
100
AcDbEntity
  8
0
  6
Continuous
 62
     2
100
AcDbLine
 10
-69.54200119575393
 20
16.84411632495485
 30
0.0
 11
-68.43836189618582
 21
16.84411632495485
 31
0.0
  0
LINE
  5
15E
102
{ACAD_REACTORS
330
242
330
243
102
}
330
A3
100
AcDbEntity
  8
0
  6
Continuous
 62
     2
100
AcDbLine
 10
-68.77234385279255
 20
15.62259251543108
 30
0.0
 11
-68.77234385279255
 21
14.75007550862776
 31
0.0
  0
LINE
  5
15F
102
{ACAD_REACTORS
330
24C
330
24D
102
}
330
A3
100
AcDbEntity
  8
0
  6
Continuous
 62
     2
100
AcDbLine
 10
-70.63310046817233
 20
17.93476258344177
 30
0.0
 11
-69.23514742123203
 21
19.51562157721665
 31
0.0
  0
LINE
  5
160
102
{ACAD_REACTORS
330
24C
330
24D
102
}
330
A3
100
AcDbEntity
  8
0
  6
Continuous
 62
     2
100
AcDbLine
 10
-70.53767705199954
 20
20.98857210725285
 30
0.0
 11
-69.23514742123203
 21
19.51562157721665
 31
0.0
  0
LINE
  5
161
102
{ACAD_REACTORS
330
24C
330
24D
102
}
330
A3
100
AcDbEntity
  8
0
  6
Continuous
 62
     2
100
AcDbLine
 10
-67.93261779046563
 20
20.98857210725285
 30
0.0
 11
-66.52989357271844
 21
20.98857210725285
 31
0.0
  0
LINE
  5
162
102
{ACAD_REACTORS
330
24C
330
24D
102
}
330
A3
100
AcDbEntity
  8
0
  6
Continuous
 62
     2
100
AcDbLine
 10
-69.23037625042423
 20
17.93476258344177
 30
0.0
 11
-68.53378531235845
 21
18.72249436873548
 31
0.0
  0
LINE
  5
163
102
{ACAD_REACTORS
330
24C
330
24D
102
}
330
A3
100
AcDbEntity
  8
0
  6
Continuous
 62
     2
100
AcDbLine
 10
-69.23037625042423
 20
17.93476258344177
 30
0.0
 11
-70.63310046817233
 21
17.93476258344177
 31
0.0
  0
LINE
  5
164
102
{ACAD_REACTORS
330
24E
330
24F
102
}
330
A3
100
AcDbEntity
  8
0
  6
Continuous
 62
     2
100
AcDbLine
 10
-70.75237973838924
 20
17.93476258344177
 30
0.0
 11
-71.99288414864213
 21
17.93476258344177
 31
0.0
  0
LINE
  5
165
102
{ACAD_REACTORS
330
250
330
251
102
}
330
A3
100
AcDbEntity
  8
0
  6
Continuous
 62
     2
100
AcDbLine
 10
-72.86086375679724
 20
15.79709591679185
 30
0.0
 11
-73.16102899398743
 21
16.56491088277855
 31
0.0
  0
LINE
  5
166
102
{ACAD_REACTORS
330
250
330
251
102
}
330
A3
100
AcDbEntity
  8
0
  6
Continuous
 62
     2
100
AcDbLine
 10
-73.46119423117975
 20
15.79709591679185
 30
0.0
 11
-72.86086375679724
 21
15.79709591679185
 31
0.0
  0
LINE
  5
167
102
{ACAD_REACTORS
330
250
330
251
102
}
330
A3
100
AcDbEntity
  8
0
  6
Continuous
 62
     2
100
AcDbLine
 10
-75.17923424605354
 20
14.57557210726745
 30
0.0
 11
-73.93872983580064
 21
14.57557210726745
 31
0.0
  0
LINE
  5
168
102
{ACAD_REACTORS
330
250
330
251
102
}
330
A3
100
AcDbEntity
  8
0
  6
Continuous
 62
     2
100
AcDbLine
 10
-73.78128119911435
 20
17.62938163107859
 30
0.0
 11
-72.54077678886154
 21
17.62938163107859
 31
0.0
  0
LINE
  5
169
102
{ACAD_REACTORS
330
250
330
251
102
}
330
A3
100
AcDbEntity
  8
0
  6
Continuous
 62
     2
100
AcDbLine
 10
-72.54077678886154
 20
17.62938163107859
 30
0.0
 11
-71.14282374192123
 21
14.57557210726745
 31
0.0
  0
LINE
  5
16A
102
{ACAD_REACTORS
330
250
330
251
102
}
330
A3
100
AcDbEntity
  8
0
  6
Continuous
 62
     2
100
AcDbLine
 10
-72.38332815217512
 20
14.57557210726745
 30
0.0
 11
-72.59480820565093
 21
15.11653265148524
 31
0.0
  0
LINE
  5
16B
102
{ACAD_REACTORS
330
252
330
253
102
}
330
A3
100
AcDbEntity
  8
0
  6
Continuous
 62
     2
100
AcDbLine
 10
-76.52564734776115
 20
14.57557210726745
 30
0.0
 11
-75.33285464559475
 21
14.57557210726745
 31
0.0
  0
LINE
  5
16C
102
{ACAD_REACTORS
330
252
330
253
102
}
330
A3
100
AcDbEntity
  8
0
  6
Continuous
 62
     2
100
AcDbLine
 10
-76.52564734776115
 20
16.84411632495485
 30
0.0
 11
-76.52564734776115
 21
14.57557210726745
 31
0.0
  0
LINE
  5
16D
102
{ACAD_REACTORS
330
252
330
253
102
}
330
A3
100
AcDbEntity
  8
0
  6
Continuous
 62
     2
100
AcDbLine
 10
-77.33674638523584
 20
17.62938163107859
 30
0.0
 11
-77.33674638523584
 21
16.84411632495485
 31
0.0
  0
LINE
  5
16E
102
{ACAD_REACTORS
330
254
330
255
102
}
330
A3
100
AcDbEntity
  8
0
  6
Continuous
 62
     2
100
AcDbLine
 10
-75.85753250366315
 20
17.93476258344177
 30
0.0
 11
-74.66473980149675
 21
17.93476258344177
 31
0.0
  0
LINE
  5
16F
102
{ACAD_REACTORS
330
254
330
255
102
}
330
A3
100
AcDbEntity
  8
0
  6
Continuous
 62
     2
100
AcDbLine
 10
-73.42423539124263
 20
19.67979659704778
 30
0.0
 11
-74.66473980149675
 21
20.98857210725285
 31
0.0
  0
LINE
  5
170
102
{ACAD_REACTORS
330
254
330
255
102
}
330
A3
100
AcDbEntity
  8
0
  6
Continuous
 62
     2
100
AcDbLine
 10
-72.23144268907603
 20
20.98857210725285
 30
0.0
 11
-73.42423539124263
 21
20.98857210725285
 31
0.0
  0
LINE
  5
171
102
{ACAD_REACTORS
330
254
330
255
102
}
330
A3
100
AcDbEntity
  8
0
  6
Continuous
 62
     2
100
AcDbLine
 10
-72.23144268907603
 20
17.93476258344177
 30
0.0
 11
-72.23144268907603
 21
20.98857210725285
 31
0.0
  0
LINE
  5
172
102
{ACAD_REACTORS
330
254
330
255
102
}
330
A3
100
AcDbEntity
  8
0
  6
Continuous
 62
     2
100
AcDbLine
 10
-73.42423539124263
 20
17.93476258344177
 30
0.0
 11
-72.23144268907603
 21
17.93476258344177
 31
0.0
  0
LINE
  5
173
102
{ACAD_REACTORS
330
254
330
255
102
}
330
A3
100
AcDbEntity
  8
0
  6
Continuous
 62
     2
100
AcDbLine
 10
-74.66473980149675
 20
19.24353809364649
 30
0.0
 11
-73.42423539124263
 21
17.93476258344177
 31
0.0
  0
LINE
  5
174
102
{ACAD_REACTORS
330
256
330
257
102
}
330
A3
100
AcDbEntity
  8
0
  6
Continuous
 62
     2
100
AcDbLine
 10
-78.67267421166233
 20
16.32060612087335
 30
0.0
 11
-79.91317862191534
 21
17.62938163107859
 31
0.0
  0
LINE
  5
175
102
{ACAD_REACTORS
330
256
330
257
102
}
330
A3
100
AcDbEntity
  8
0
  6
Continuous
 62
     2
100
AcDbLine
 10
-78.67267421166233
 20
17.62938163107859
 30
0.0
 11
-78.67267421166233
 21
16.32060612087335
 31
0.0
  0
LINE
  5
176
102
{ACAD_REACTORS
330
256
330
257
102
}
330
A3
100
AcDbEntity
  8
0
  6
Continuous
 62
     2
100
AcDbLine
 10
-77.47988150949593
 20
17.62938163107859
 30
0.0
 11
-78.67267421166233
 21
17.62938163107859
 31
0.0
  0
LINE
  5
177
102
{ACAD_REACTORS
330
256
330
257
102
}
330
A3
100
AcDbEntity
  8
0
  6
Continuous
 62
     2
100
AcDbLine
 10
-77.47988150949593
 20
14.57557210726745
 30
0.0
 11
-77.47988150949593
 21
17.62938163107859
 31
0.0
  0
LINE
  5
178
102
{ACAD_REACTORS
330
256
330
257
102
}
330
A3
100
AcDbEntity
  8
0
  6
Continuous
 62
     2
100
AcDbLine
 10
-79.91317862191534
 20
15.88434761747195
 30
0.0
 11
-78.67267421166233
 21
14.57557210726745
 31
0.0
  0
LINE
  5
179
102
{ACAD_REACTORS
330
256
330
257
102
}
330
A3
100
AcDbEntity
  8
0
  6
Continuous
 62
     2
100
AcDbLine
 10
-79.91317862191534
 20
14.57557210726745
 30
0.0
 11
-79.91317862191534
 21
15.88434761747195
 31
0.0
  0
LINE
  5
17A
102
{ACAD_REACTORS
330
246
330
247
102
}
330
A3
100
AcDbEntity
  8
0
  6
Continuous
 62
     2
100
AcDbLine
 10
-77.43201887052373
 20
20.29055850180995
 30
0.0
 11
-76.09609104409614
 21
20.29055850180995
 31
0.0
  0
LINE
  5
17B
102
{ACAD_REACTORS
330
246
330
247
102
}
330
A3
100
AcDbEntity
  8
0
  6
Continuous
 62
     2
100
AcDbLine
 10
-77.43201887052373
 20
18.63277618888415
 30
0.0
 11
-77.43201887052373
 21
19.11266054262589
 31
0.0
  0
LINE
  5
17C
102
{ACAD_REACTORS
330
246
330
247
102
}
330
A3
100
AcDbEntity
  8
0
  6
Continuous
 62
     2
100
AcDbLine
 10
-76.09609104409614
 20
18.63277618888415
 30
0.0
 11
-77.43201887052373
 21
18.63277618888415
 31
0.0
  0
LINE
  5
17D
102
{ACAD_REACTORS
330
246
330
247
102
}
330
A3
100
AcDbEntity
  8
0
  6
Continuous
 62
     2
100
AcDbLine
 10
-76.09609104409614
 20
17.93476258344177
 30
0.0
 11
-76.09609104409614
 21
18.63277618888415
 31
0.0
  0
LINE
  5
17E
102
{ACAD_REACTORS
330
246
330
247
102
}
330
A3
100
AcDbEntity
  8
0
  6
Continuous
 62
     2
100
AcDbLine
 10
-79.24641076787702
 20
17.93476258344177
 30
0.0
 11
-76.09609104409614
 21
17.93476258344177
 31
0.0
  0
LINE
  5
17F
102
{ACAD_REACTORS
330
246
330
247
102
}
330
A3
100
AcDbEntity
  8
0
  6
Continuous
 62
     2
100
AcDbLine
 10
-79.24641076787702
 20
20.98857210725285
 30
0.0
 11
-76.09609104409614
 21
20.98857210725285
 31
0.0
  0
LINE
  5
180
102
{ACAD_REACTORS
330
246
330
247
102
}
330
A3
100
AcDbEntity
  8
0
  6
Continuous
 62
     2
100
AcDbLine
 10
-76.09609104409614
 20
20.29055850180995
 30
0.0
 11
-76.09609104409614
 21
20.98857210725285
 31
0.0
  0
LINE
  5
181
102
{ACAD_REACTORS
330
258
330
259
102
}
330
A3
100
AcDbEntity
  8
0
  6
Continuous
 62
     2
100
AcDbLine
 10
-82.10776626301714
 20
19.91973877391828
 30
0.0
 11
-82.10776626301714
 21
20.98857210725285
 31
0.0
  0
LINE
  5
182
102
{ACAD_REACTORS
330
258
330
259
102
}
330
A3
100
AcDbEntity
  8
0
  6
Continuous
 62
     2
100
AcDbLine
 10
-82.10776626301714
 20
20.98857210725285
 30
0.0
 11
-80.91497356085063
 21
20.98857210725285
 31
0.0
  0
LINE
  5
183
102
{ACAD_REACTORS
330
258
330
259
102
}
330
A3
100
AcDbEntity
  8
0
  6
Continuous
 62
     2
100
AcDbLine
 10
-82.10776626301714
 20
19.06903469228544
 30
0.0
 11
-83.15742384092454
 21
19.06903469228544
 31
0.0
  0
LINE
  5
184
102
{ACAD_REACTORS
330
258
330
259
102
}
330
A3
100
AcDbEntity
  8
0
  6
Continuous
 62
     2
100
AcDbLine
 10
-83.15742384092454
 20
19.06903469228544
 30
0.0
 11
-83.15742384092454
 21
17.93476258344177
 31
0.0
  0
LINE
  5
185
102
{ACAD_REACTORS
330
258
330
259
102
}
330
A3
100
AcDbEntity
  8
0
  6
Continuous
 62
     2
100
AcDbLine
 10
-84.35021654309114
 20
20.98857210725285
 30
0.0
 11
-84.35021654309114
 21
17.93476258344177
 31
0.0
  0
LINE
  5
186
102
{ACAD_REACTORS
330
24A
330
24B
102
}
330
A3
100
AcDbEntity
  8
0
  6
Continuous
 62
     2
100
AcDbLine
 10
-86.30639657464485
 20
19.61973861247057
 30
0.0
 11
-86.30639657464485
 21
20.32546626181286
 31
0.0
  0
LINE
  5
187
102
{ACAD_REACTORS
330
24A
330
24B
102
}
330
A3
100
AcDbEntity
  8
0
  6
Continuous
 62
     2
100
AcDbLine
 10
-87.54690098489883
 20
17.93476258344177
 30
0.0
 11
-86.30639657464485
 21
17.93476258344177
 31
0.0
  0
LINE
  5
188
102
{ACAD_REACTORS
330
24A
330
24B
102
}
330
A3
100
AcDbEntity
  8
0
  6
Continuous
 62
     2
100
AcDbLine
 10
-86.30639657464485
 20
17.93476258344177
 30
0.0
 11
-86.30639657464485
 21
18.87784082458549
 31
0.0
  0
LINE
  5
189
102
{ACAD_REACTORS
330
244
330
245
102
}
330
A3
100
AcDbEntity
  8
0
  6
Continuous
 62
     2
100
AcDbLine
 10
-91.85184683411035
 20
15.28812766282439
 30
0.0
 11
-93.32768009511994
 21
15.28812766282439
 31
0.0
  0
LINE
  5
18A
102
{ACAD_REACTORS
330
244
330
245
102
}
330
A3
100
AcDbEntity
  8
0
  6
Continuous
 62
     2
100
AcDbLine
 10
-94.34581938724924
 20
20.56432749185089
 30
0.0
 11
-94.34581938724924
 21
14.99981672265065
 31
0.0
  0
LINE
  5
18B
102
{ACAD_REACTORS
330
244
330
245
102
}
330
A3
100
AcDbEntity
  8
0
  6
Continuous
 62
     2
100
AcDbLine
 10
-93.92157477186643
 20
20.98857210723477
 30
0.0
 11
-88.44826268114954
 21
20.98857210723477
 31
0.0
  0
LINE
  5
18C
102
{ACAD_REACTORS
330
244
330
245
102
}
330
A3
100
AcDbEntity
  8
0
  6
Continuous
 62
     2
100
AcDbLine
 10
-88.02401806576563
 20
20.56432749185089
 30
0.0
 11
-88.02401806576563
 21
14.99981672265065
 31
0.0
  0
LINE
  5
18D
102
{ACAD_REACTORS
330
244
330
245
102
}
330
A3
100
AcDbEntity
  8
0
  6
Continuous
 62
     2
100
AcDbLine
 10
-88.44826268114954
 20
14.57557210726745
 30
0.0
 11
-93.92157477186643
 21
14.57557210726745
 31
0.0
  0
LINE
  5
18E
102
{ACAD_REACTORS
330
244
330
245
102
}
330
A3
100
AcDbEntity
  8
0
  6
Continuous
 62
     2
100
AcDbLine
 10
-91.53612991103373
 20
15.60384458590104
 30
0.0
 11
-91.53612991103373
 21
17.13461551743265
 31
0.0
  0
LINE
  5
18F
102
{ACAD_REACTORS
330
244
330
245
102
}
330
A3
100
AcDbEntity
  8
0
  6
Continuous
 62
     2
100
AcDbLine
 10
-91.53612991103373
 20
19.35627500955755
 30
0.0
 11
-91.53612991103373
 21
19.96029962861817
 31
0.0
  0
LINE
  5
190
102
{ACAD_REACTORS
330
244
330
245
102
}
330
A3
100
AcDbEntity
  8
0
  6
Continuous
 62
     2
100
AcDbLine
 10
-93.32768009511994
 20
20.27601655169426
 30
0.0
 11
-91.85184683411035
 21
20.27601655169426
 31
0.0
  0
LINE
  5
191
102
{ACAD_REACTORS
330
244
330
245
102
}
330
A3
100
AcDbEntity
  8
0
  6
Continuous
 62
     2
100
AcDbLine
 10
-93.64339701819554
 20
19.96029962861817
 30
0.0
 11
-93.64339701819554
 21
15.60384458590104
 31
0.0
  0
LINE
  5
192
102
{ACAD_REACTORS
330
24A
330
24B
102
}
330
A3
100
AcDbEntity
  8
0
  6
Continuous
 62
     2
100
AcDbLine
 10
-86.30639657464485
 20
18.87784082458549
 30
0.0
 11
-85.54762898686442
 21
18.87784082458549
 31
0.0
  0
LINE
  5
193
102
{ACAD_REACTORS
330
24A
330
24B
102
}
330
A3
100
AcDbEntity
  8
0
  6
Continuous
 62
     2
100
AcDbLine
 10
-87.54690098489883
 20
20.98857210725285
 30
0.0
 11
-85.54762898686442
 21
20.98857210725285
 31
0.0
  0
LINE
  5
194
102
{ACAD_REACTORS
330
24A
330
24B
102
}
330
A3
100
AcDbEntity
  8
0
  6
Continuous
 62
     2
100
AcDbLine
 10
-87.54690098489883
 20
20.98857210725285
 30
0.0
 11
-87.54690098489883
 21
17.93476258344177
 31
0.0
  0
LINE
  5
195
102
{ACAD_REACTORS
330
24A
330
24B
102
}
330
A3
100
AcDbEntity
  8
0
  6
Continuous
 62
     2
100
AcDbLine
 10
-86.30639657464485
 20
19.61973861247057
 30
0.0
 11
-85.98910151310284
 21
19.61973861247057
 31
0.0
  0
LINE
  5
196
102
{ACAD_REACTORS
330
24A
330
24B
102
}
330
A3
100
AcDbEntity
  8
0
  6
Continuous
 62
     2
100
AcDbLine
 10
-86.30639657464485
 20
20.32546626181286
 30
0.0
 11
-85.98910151310284
 21
20.32546626181286
 31
0.0
  0
LINE
  5
197
102
{ACAD_REACTORS
330
258
330
259
102
}
330
A3
100
AcDbEntity
  8
0
  6
Continuous
 62
     2
100
AcDbLine
 10
-83.15742384092454
 20
19.91973877391828
 30
0.0
 11
-82.10776626301714
 21
19.91973877391828
 31
0.0
  0
LINE
  5
198
102
{ACAD_REACTORS
330
258
330
259
102
}
330
A3
100
AcDbEntity
  8
0
  6
Continuous
 62
     2
100
AcDbLine
 10
-83.15742384092454
 20
20.98857210725285
 30
0.0
 11
-83.15742384092454
 21
19.91973877391828
 31
0.0
  0
LINE
  5
199
102
{ACAD_REACTORS
330
258
330
259
102
}
330
A3
100
AcDbEntity
  8
0
  6
Continuous
 62
     2
100
AcDbLine
 10
-84.35021654309114
 20
20.98857210725285
 30
0.0
 11
-83.15742384092454
 21
20.98857210725285
 31
0.0
  0
LINE
  5
19A
102
{ACAD_REACTORS
330
258
330
259
102
}
330
A3
100
AcDbEntity
  8
0
  6
Continuous
 62
     2
100
AcDbLine
 10
-83.15742384092454
 20
17.93476258344177
 30
0.0
 11
-84.35021654309114
 21
17.93476258344177
 31
0.0
  0
LINE
  5
19B
102
{ACAD_REACTORS
330
258
330
259
102
}
330
A3
100
AcDbEntity
  8
0
  6
Continuous
 62
     2
100
AcDbLine
 10
-82.10776626301714
 20
17.93476258344177
 30
0.0
 11
-82.10776626301714
 21
19.06903469228544
 31
0.0
  0
LINE
  5
19C
102
{ACAD_REACTORS
330
258
330
259
102
}
330
A3
100
AcDbEntity
  8
0
  6
Continuous
 62
     2
100
AcDbLine
 10
-80.91497356085063
 20
17.93476258344177
 30
0.0
 11
-82.10776626301714
 21
17.93476258344177
 31
0.0
  0
LINE
  5
19D
102
{ACAD_REACTORS
330
258
330
259
102
}
330
A3
100
AcDbEntity
  8
0
  6
Continuous
 62
     2
100
AcDbLine
 10
-80.91497356085063
 20
20.98857210725285
 30
0.0
 11
-80.91497356085063
 21
17.93476258344177
 31
0.0
  0
LINE
  5
19E
102
{ACAD_REACTORS
330
246
330
247
102
}
330
A3
100
AcDbEntity
  8
0
  6
Continuous
 62
     2
100
AcDbLine
 10
-77.43201887052373
 20
19.11266054262589
 30
0.0
 11
-76.09609104409614
 21
19.11266054262589
 31
0.0
  0
LINE
  5
19F
102
{ACAD_REACTORS
330
246
330
247
102
}
330
A3
100
AcDbEntity
  8
0
  6
Continuous
 62
     2
100
AcDbLine
 10
-76.09609104409614
 20
19.11266054262589
 30
0.0
 11
-76.09609104409614
 21
19.81067414806827
 31
0.0
  0
LINE
  5
1A0
102
{ACAD_REACTORS
330
246
330
247
102
}
330
A3
100
AcDbEntity
  8
0
  6
Continuous
 62
     2
100
AcDbLine
 10
-76.09609104409614
 20
19.81067414806827
 30
0.0
 11
-77.43201887052373
 21
19.81067414806827
 31
0.0
  0
LINE
  5
1A1
102
{ACAD_REACTORS
330
246
330
247
102
}
330
A3
100
AcDbEntity
  8
0
  6
Continuous
 62
     2
100
AcDbLine
 10
-77.43201887052373
 20
19.81067414806827
 30
0.0
 11
-77.43201887052373
 21
20.29055850180995
 31
0.0
  0
LINE
  5
1A2
102
{ACAD_REACTORS
330
256
330
257
102
}
330
A3
100
AcDbEntity
  8
0
  6
Continuous
 62
     2
100
AcDbLine
 10
-81.10597132408284
 20
14.57557210726745
 30
0.0
 11
-79.91317862191534
 21
14.57557210726745
 31
0.0
  0
LINE
  5
1A3
102
{ACAD_REACTORS
330
256
330
257
102
}
330
A3
100
AcDbEntity
  8
0
  6
Continuous
 62
     2
100
AcDbLine
 10
-78.67267421166233
 20
14.57557210726745
 30
0.0
 11
-77.47988150949593
 21
14.57557210726745
 31
0.0
  0
LINE
  5
1A4
102
{ACAD_REACTORS
330
256
330
257
102
}
330
A3
100
AcDbEntity
  8
0
  6
Continuous
 62
     2
100
AcDbLine
 10
-79.91317862191534
 20
17.62938163107859
 30
0.0
 11
-81.10597132408284
 21
17.62938163107859
 31
0.0
  0
LINE
  5
1A5
102
{ACAD_REACTORS
330
256
330
257
102
}
330
A3
100
AcDbEntity
  8
0
  6
Continuous
 62
     2
100
AcDbLine
 10
-81.10597132408284
 20
17.62938163107859
 30
0.0
 11
-81.10597132408284
 21
14.57557210726745
 31
0.0
  0
LINE
  5
1A6
102
{ACAD_REACTORS
330
254
330
255
102
}
330
A3
100
AcDbEntity
  8
0
  6
Continuous
 62
     2
100
AcDbLine
 10
-73.42423539124263
 20
20.98857210725285
 30
0.0
 11
-73.42423539124263
 21
19.67979659704778
 31
0.0
  0
LINE
  5
1A7
102
{ACAD_REACTORS
330
254
330
255
102
}
330
A3
100
AcDbEntity
  8
0
  6
Continuous
 62
     2
100
AcDbLine
 10
-74.66473980149675
 20
20.98857210725285
 30
0.0
 11
-75.85753250366315
 21
20.98857210725285
 31
0.0
  0
LINE
  5
1A8
102
{ACAD_REACTORS
330
254
330
255
102
}
330
A3
100
AcDbEntity
  8
0
  6
Continuous
 62
     2
100
AcDbLine
 10
-75.85753250366315
 20
20.98857210725285
 30
0.0
 11
-75.85753250366315
 21
17.93476258344177
 31
0.0
  0
LINE
  5
1A9
102
{ACAD_REACTORS
330
254
330
255
102
}
330
A3
100
AcDbEntity
  8
0
  6
Continuous
 62
     2
100
AcDbLine
 10
-74.66473980149675
 20
17.93476258344177
 30
0.0
 11
-74.66473980149675
 21
19.24353809364649
 31
0.0
  0
LINE
  5
1AA
102
{ACAD_REACTORS
330
252
330
253
102
}
330
A3
100
AcDbEntity
  8
0
  6
Continuous
 62
     2
100
AcDbLine
 10
-75.33285464559475
 20
14.57557210726745
 30
0.0
 11
-75.33285464559475
 21
16.84411632495485
 31
0.0
  0
LINE
  5
1AB
102
{ACAD_REACTORS
330
252
330
253
102
}
330
A3
100
AcDbEntity
  8
0
  6
Continuous
 62
     2
100
AcDbLine
 10
-75.33285464559475
 20
16.84411632495485
 30
0.0
 11
-74.52175560812213
 21
16.84411632495485
 31
0.0
  0
LINE
  5
1AC
102
{ACAD_REACTORS
330
252
330
253
102
}
330
A3
100
AcDbEntity
  8
0
  6
Continuous
 62
     2
100
AcDbLine
 10
-74.52175560812213
 20
16.84411632495485
 30
0.0
 11
-74.52175560812213
 21
17.62938163107859
 31
0.0
  0
LINE
  5
1AD
102
{ACAD_REACTORS
330
252
330
253
102
}
330
A3
100
AcDbEntity
  8
0
  6
Continuous
 62
     2
100
AcDbLine
 10
-74.52175560812213
 20
17.62938163107859
 30
0.0
 11
-77.33674638523584
 21
17.62938163107859
 31
0.0
  0
LINE
  5
1AE
102
{ACAD_REACTORS
330
252
330
253
102
}
330
A3
100
AcDbEntity
  8
0
  6
Continuous
 62
     2
100
AcDbLine
 10
-77.33674638523584
 20
16.84411632495485
 30
0.0
 11
-76.52564734776115
 21
16.84411632495485
 31
0.0
  0
LINE
  5
1AF
102
{ACAD_REACTORS
330
250
330
251
102
}
330
A3
100
AcDbEntity
  8
0
  6
Continuous
 62
     2
100
AcDbLine
 10
-73.72724978232483
 20
15.11653265148524
 30
0.0
 11
-72.59480820565093
 21
15.11653265148524
 31
0.0
  0
LINE
  5
1B0
102
{ACAD_REACTORS
330
250
330
251
102
}
330
A3
100
AcDbEntity
  8
0
  6
Continuous
 62
     2
100
AcDbLine
 10
-71.14282374192123
 20
14.57557210726745
 30
0.0
 11
-72.38332815217512
 21
14.57557210726745
 31
0.0
  0
LINE
  5
1B1
102
{ACAD_REACTORS
330
250
330
251
102
}
330
A3
100
AcDbEntity
  8
0
  6
Continuous
 62
     2
100
AcDbLine
 10
-73.78128119911435
 20
17.62938163107859
 30
0.0
 11
-75.17923424605354
 21
14.57557210726745
 31
0.0
  0
LINE
  5
1B2
102
{ACAD_REACTORS
330
250
330
251
102
}
330
A3
100
AcDbEntity
  8
0
  6
Continuous
 62
     2
100
AcDbLine
 10
-73.93872983580064
 20
14.57557210726745
 30
0.0
 11
-73.72724978232483
 21
15.11653265148524
 31
0.0
  0
LINE
  5
1B3
102
{ACAD_REACTORS
330
250
330
251
102
}
330
A3
100
AcDbEntity
  8
0
  6
Continuous
 62
     2
100
AcDbLine
 10
-73.46119423117975
 20
15.79709591679185
 30
0.0
 11
-73.16102899398743
 21
16.56491088277855
 31
0.0
  0
LINE
  5
1B4
102
{ACAD_REACTORS
330
24E
330
24F
102
}
330
A3
100
AcDbEntity
  8
0
  6
Continuous
 62
     2
100
AcDbLine
 10
-71.99288414864213
 20
17.93476258344177
 30
0.0
 11
-71.99288414864213
 21
20.98857210725285
 31
0.0
  0
LINE
  5
1B5
102
{ACAD_REACTORS
330
24E
330
24F
102
}
330
A3
100
AcDbEntity
  8
0
  6
Continuous
 62
     2
100
AcDbLine
 10
-70.75237973838924
 20
20.98857210725285
 30
0.0
 11
-70.75237973838924
 21
17.93476258344177
 31
0.0
  0
LINE
  5
1B6
102
{ACAD_REACTORS
330
24E
330
24F
102
}
330
A3
100
AcDbEntity
  8
0
  6
Continuous
 62
     2
100
AcDbLine
 10
-71.99288414864213
 20
20.98857210725285
 30
0.0
 11
-70.75237973838924
 21
20.98857210725285
 31
0.0
  0
LINE
  5
1B7
102
{ACAD_REACTORS
330
24C
330
24D
102
}
330
A3
100
AcDbEntity
  8
0
  6
Continuous
 62
     2
100
AcDbLine
 10
-68.53378531235845
 20
18.72249436873548
 30
0.0
 11
-67.83719437429303
 21
17.93476258344177
 31
0.0
  0
LINE
  5
1B8
102
{ACAD_REACTORS
330
24C
330
24D
102
}
330
A3
100
AcDbEntity
  8
0
  6
Continuous
 62
     2
100
AcDbLine
 10
-67.83719437429303
 20
17.93476258344177
 30
0.0
 11
-66.43447015654473
 21
17.93476258344177
 31
0.0
  0
LINE
  5
1B9
102
{ACAD_REACTORS
330
24C
330
24D
102
}
330
A3
100
AcDbEntity
  8
0
  6
Continuous
 62
     2
100
AcDbLine
 10
-67.83242320348504
 20
19.51562157721665
 30
0.0
 11
-66.43447015654473
 21
17.93476258344177
 31
0.0
  0
LINE
  5
1BA
102
{ACAD_REACTORS
330
24C
330
24D
102
}
330
A3
100
AcDbEntity
  8
0
  6
Continuous
 62
     2
100
AcDbLine
 10
-67.83242320348504
 20
19.51562157721665
 30
0.0
 11
-66.52989357271844
 21
20.98857210725285
 31
0.0
  0
LINE
  5
1BB
102
{ACAD_REACTORS
330
24C
330
24D
102
}
330
A3
100
AcDbEntity
  8
0
  6
Continuous
 62
     2
100
AcDbLine
 10
-68.53378531235845
 20
20.30874878569736
 30
0.0
 11
-67.93261779046563
 21
20.98857210725285
 31
0.0
  0
LINE
  5
1BC
102
{ACAD_REACTORS
330
24C
330
24D
102
}
330
A3
100
AcDbEntity
  8
0
  6
Continuous
 62
     2
100
AcDbLine
 10
-69.13495283425033
 20
20.98857210725285
 30
0.0
 11
-68.53378531235845
 21
20.30874878569736
 31
0.0
  0
LINE
  5
1BD
102
{ACAD_REACTORS
330
24C
330
24D
102
}
330
A3
100
AcDbEntity
  8
0
  6
Continuous
 62
     2
100
AcDbLine
 10
-69.13495283425033
 20
20.98857210725285
 30
0.0
 11
-70.53767705199954
 21
20.98857210725285
 31
0.0
  0
LINE
  5
1BE
102
{ACAD_REACTORS
330
242
330
243
102
}
330
A3
100
AcDbEntity
  8
0
  6
Continuous
 62
     2
100
AcDbLine
 10
-68.43836189618582
 20
14.57557210726745
 30
0.0
 11
-67.24556919401815
 21
14.57557210726745
 31
0.0
  0
LINE
  5
1BF
102
{ACAD_REACTORS
330
242
330
243
102
}
330
A3
100
AcDbEntity
  8
0
  6
Continuous
 62
     2
100
AcDbLine
 10
-67.24556919401815
 20
14.57557210726745
 30
0.0
 11
-67.24556919401815
 21
16.84411632495485
 31
0.0
  0
LINE
  5
1C0
102
{ACAD_REACTORS
330
242
330
243
102
}
330
A3
100
AcDbEntity
  8
0
  6
Continuous
 62
     2
100
AcDbLine
 10
-67.24556919401815
 20
16.84411632495485
 30
0.0
 11
-66.43447015654473
 21
16.84411632495485
 31
0.0
  0
LINE
  5
1C1
102
{ACAD_REACTORS
330
242
330
243
102
}
330
A3
100
AcDbEntity
  8
0
  6
Continuous
 62
     2
100
AcDbLine
 10
-66.43447015654473
 20
16.84411632495485
 30
0.0
 11
-66.43447015654473
 21
17.62938163107859
 31
0.0
  0
LINE
  5
1C2
102
{ACAD_REACTORS
330
242
330
243
102
}
330
A3
100
AcDbEntity
  8
0
  6
Continuous
 62
     2
100
AcDbLine
 10
-69.81941567517333
 20
17.62938163107796
 30
0.0
 11
-66.43447015654473
 21
17.62938163107859
 31
0.0
  0
LINE
  5
1C3
102
{ACAD_REACTORS
330
242
330
243
102
}
330
A3
100
AcDbEntity
  8
0
  6
Continuous
 62
     2
100
AcDbLine
 10
-68.43836189618582
 20
16.84411632495485
 30
0.0
 11
-68.43836189618582
 21
14.57557210726745
 31
0.0
  0
LINE
  5
1C4
102
{ACAD_REACTORS
330
244
330
245
102
}
330
A3
100
AcDbEntity
  8
0
  6
Continuous
 62
     2
100
AcDbLine
 10
-91.06784833166495
 20
16.55445225683198
 30
0.0
 11
-91.06784833166495
 21
17.13630366352706
 31
0.0
  0
LINE
  5
1C5
102
{ACAD_REACTORS
330
244
330
245
102
}
330
A3
100
AcDbEntity
  8
0
  6
Continuous
 62
     2
100
AcDbLine
 10
-91.06784833166495
 20
19.3545868634632
 30
0.0
 11
-91.06784833166495
 21
19.96012215196996
 31
0.0
  0
LINE
  5
1C6
330
A3
100
AcDbEntity
  8
1
  6
Continuous
 62
     7
100
AcDbLine
 10
-99.58247427381173
 20
24.28207210725108
 30
0.0
 11
-61.18247427381184
 21
24.28207210725108
 31
0.0
  0
LINE
  5
1C7
330
A3
100
AcDbEntity
  8
1
  6
Continuous
 62
     6
100
AcDbLine
 10
-99.58247427381173
 20
24.28207210725108
 30
0.0
 11
-99.58247427381173
 21
11.53207210725108
 31
0.0
  0
LINE
  5
1C8
330
A3
100
AcDbEntity
  8
1
  6
Continuous
 62
     7
100
AcDbLine
 10
-45.18247427381184
 20
24.28207210725108
 30
0.0
 11
-45.18247427381184
 21
15.78207210725108
 31
0.0
  0
LINE
  5
1C9
330
A3
100
AcDbEntity
  8
1
  6
Continuous
 62
     2
100
AcDbLine
 10
-94.34581938724924
 20
29.65707210725097
 30
0.0
 11
-89.34581938724924
 21
30.90707210725097
 31
0.0
  0
LINE
  5
1CA
330
A3
100
AcDbEntity
  8
1
  6
Continuous
 62
     2
100
AcDbLine
 10
-94.34581938724924
 20
27.15707210725097
 30
0.0
 11
-94.34581938724924
 21
29.65707210725097
 31
0.0
  0
LINE
  5
1CB
330
A3
100
AcDbEntity
  8
1
  6
Continuous
 62
     2
100
AcDbLine
 10
-89.34581938724924
 20
25.90707210725097
 30
0.0
 11
-94.34581938724924
 21
27.15707210725097
 31
0.0
  0
LINE
  5
1CC
330
A3
100
AcDbEntity
  8
1
  6
Continuous
 62
     2
100
AcDbLine
 10
-89.34581938724924
 20
30.90707210725097
 30
0.0
 11
-89.34581938724924
 21
25.90707210725097
 31
0.0
  0
LINE
  5
1CD
330
A3
100
AcDbEntity
  8
1
  6
Continuous
 62
     7
100
AcDbLine
 10
-99.58247427381173
 20
11.53207210725108
 30
0.0
 11
-80.38247427381182
 21
11.5320721072512
 31
0.0
  0
LINE
  5
1CE
330
A3
100
AcDbEntity
  8
1
  6
Continuous
 62
     6
100
AcDbLine
 10
-99.58247427381173
 20
11.53207210725108
 30
0.0
 11
-99.58247427381173
 21
7.28207210725108
 31
0.0
  0
LINE
  5
1CF
330
A3
100
AcDbEntity
  8
1
  6
Continuous
 62
     7
100
AcDbLine
 10
-80.38247427381182
 20
11.5320721072512
 30
0.0
 11
-80.38247427381182
 21
7.28207210725108
 31
0.0
  0
LINE
  5
1D0
330
A3
100
AcDbEntity
  8
1
  6
Continuous
 62
     7
100
AcDbLine
 10
-80.38247427381182
 20
11.5320721072512
 30
0.0
 11
-61.18247427381184
 21
11.5320721072512
 31
0.0
  0
LINE
  5
1D1
330
A3
100
AcDbEntity
  8
1
  6
Continuous
 62
     7
100
AcDbLine
 10
10.84392197126066
 20
32.78207210725108
 30
0.0
 11
10.84392197126066
 21
24.28207210725108
 31
0.0
  0
LINE
  5
1D2
330
A3
100
AcDbEntity
  8
1
  6
Continuous
 62
     6
100
AcDbLine
 10
47.9623302529377
 20
15.78207210725108
 30
0.0
 11
-45.18247427381184
 21
15.78207210725108
 31
0.0
  0
LINE
  5
1D3
330
A3
100
AcDbEntity
  8
1
  6
Continuous
 62
     7
100
AcDbLine
 10
10.84392197126066
 20
24.28207210725108
 30
0.0
 11
10.84392197126066
 21
15.78207210725108
 31
0.0
  0
LINE
  5
1D4
330
A3
100
AcDbEntity
  8
1
  6
Continuous
 62
     6
100
AcDbLine
 10
-61.18247427381184
 20
11.5320721072512
 30
0.0
 11
-61.18247427381184
 21
7.2820721072512
 31
0.0
  0
LINE
  5
1D5
330
A3
100
AcDbEntity
  8
1
  6
Continuous
 62
     6
100
AcDbLine
 10
-61.18247427381184
 20
11.5320721072512
 30
0.0
 11
-61.18247427381184
 21
15.78207210725108
 31
0.0
  0
LINE
  5
1D6
330
A3
100
AcDbEntity
  8
1
  6
Continuous
 62
     6
100
AcDbLine
 10
-99.58247427381173
 20
32.78207210725108
 30
0.0
 11
-61.18247427381184
 21
32.78207210725108
 31
0.0
  0
LINE
  5
1D7
330
A3
100
AcDbEntity
  8
1
  6
Continuous
 62
     6
100
AcDbLine
 10
-45.18247427381184
 20
15.78207210725108
 30
0.0
 11
-61.18247427381184
 21
15.78207210725108
 31
0.0
  0
LINE
  5
1D8
330
A3
100
AcDbEntity
  8
1
  6
Continuous
 62
     6
100
AcDbLine
 10
-61.18247427381184
 20
15.78207210725108
 30
0.0
 11
-61.18247427381184
 21
24.28207210725108
 31
0.0
  0
LINE
  5
1D9
330
A3
100
AcDbEntity
  8
1
  6
Continuous
 62
     6
100
AcDbLine
 10
-61.18247427381184
 20
24.28207210725108
 30
0.0
 11
-61.18247427381184
 21
32.78207210725108
 31
0.0
  0
LINE
  5
1DA
330
A3
100
AcDbEntity
  8
1
  6
Continuous
 62
     7
100
AcDbLine
 10
-61.18247427381184
 20
24.28207210725108
 30
0.0
 11
-45.18247427381184
 21
24.28207210725108
 31
0.0
  0
LINE
  5
1DB
330
A3
100
AcDbEntity
  8
1
  6
Continuous
 62
     6
100
AcDbLine
 10
-61.18247427381184
 20
32.78207210725108
 30
0.0
 11
47.96233025293995
 21
32.78207210725108
 31
0.0
  0
LINE
  5
1DC
330
A3
100
AcDbEntity
  8
1
  6
PHANTOM
 62
     2
100
AcDbLine
 10
-83.09581938724924
 20
28.40707210725097
 30
0.0
 11
-88.59581938724924
 21
28.40707210725097
 31
0.0
  0
LINE
  5
1DD
330
A3
100
AcDbEntity
  8
1
  6
PHANTOM
 62
     2
100
AcDbLine
 10
-85.84581938724924
 20
31.15707210725108
 30
0.0
 11
-85.84581938724924
 21
25.65707210725108
 31
0.0
  0
LINE
  5
1DE
330
A3
100
AcDbEntity
  8
1
  6
DOT_CENTER
 62
     2
100
AcDbLine
 10
-94.59581938724924
 20
28.40707210725097
 30
0.0
 11
-89.09581938724924
 21
28.40707210725097
 31
0.0
  0
ARC
  5
1DF
102
{ACAD_REACTORS
330
248
330
249
102
}
330
A3
100
AcDbEntity
  8
0
  6
Continuous
 62
     2
100
AcDbCircle
 10
-83.19082627485173
 20
16.10247686917265
 30
0.0
 40
0.7717997786795384
100
AcDbArc
 50
321.8795802028428
 51
38.12041979716638
  0
ARC
  5
1E0
102
{ACAD_REACTORS
330
248
330
249
102
}
330
A3
100
AcDbEntity
  8
0
  6
Continuous
 62
     2
100
AcDbCircle
 10
-82.99108623850535
 20
15.94574569105279
 30
0.0
 40
0.51790857301382
100
AcDbArc
 50
218.1204197971898
 51
321.8795802027927
  0
ARC
  5
1E1
102
{ACAD_REACTORS
330
248
330
249
102
}
330
A3
100
AcDbEntity
  8
0
  6
Continuous
 62
     2
100
AcDbCircle
 10
-82.79134620215933
 20
16.10247686917265
 30
0.0
 40
0.7717997786795465
100
AcDbArc
 50
141.8795802028284
 51
218.1204197971623
  0
ARC
  5
1E2
102
{ACAD_REACTORS
330
248
330
249
102
}
330
A3
100
AcDbEntity
  8
0
  6
Continuous
 62
     2
100
AcDbCircle
 10
-82.99108623850535
 20
16.25920804729319
 30
0.0
 40
0.5179085730132985
100
AcDbArc
 50
38.12041979716213
 51
141.8795802028554
  0
ARC
  5
1E3
102
{ACAD_REACTORS
330
240
330
241
102
}
330
A3
100
AcDbEntity
  8
0
  6
Continuous
 62
     2
100
AcDbCircle
 10
-86.05310037406934
 20
14.69201050376458
 30
0.0
 40
2.227384008973467
100
AcDbArc
 50
58.06909105003711
 51
71.55192388186677
  0
ARC
  5
1E4
102
{ACAD_REACTORS
330
240
330
241
102
}
330
A3
100
AcDbEntity
  8
0
  6
Continuous
 62
     2
100
AcDbCircle
 10
-85.79137267311054
 20
16.30754829851176
 30
0.0
 40
0.5115800601948147
100
AcDbArc
 50
113.3722778881918
 51
151.4785267423153
  0
ARC
  5
1E5
102
{ACAD_REACTORS
330
240
330
241
102
}
330
A3
100
AcDbEntity
  8
0
  6
Continuous
 62
     2
100
AcDbCircle
 10
-85.41401541503015
 20
16.10247686917265
 30
0.0
 40
0.9410597353333294
100
AcDbArc
 50
151.4785267422693
 51
208.5214732576976
  0
ARC
  5
1E6
102
{ACAD_REACTORS
330
240
330
241
102
}
330
A3
100
AcDbEntity
  8
0
  6
Continuous
 62
     2
100
AcDbCircle
 10
-86.21097324916215
 20
19.41515781442919
 30
0.0
 40
4.852596863498267
100
AcDbArc
 50
275.1581447696238
 51
285.9799912583526
  0
ARC
  5
1E7
102
{ACAD_REACTORS
330
240
330
241
102
}
330
A3
100
AcDbEntity
  8
0
  6
Continuous
 62
     2
100
AcDbCircle
 10
-85.92211715442625
 20
16.21526723120755
 30
0.0
 40
1.639695123939411
100
AcDbArc
 50
195.0618917770926
 51
275.1581447696363
  0
ARC
  5
1E8
102
{ACAD_REACTORS
330
240
330
241
102
}
330
A3
100
AcDbEntity
  8
0
  6
Continuous
 62
     2
100
AcDbCircle
 10
-86.34124499788905
 20
16.10247686917265
 30
0.0
 40
1.205656168390943
100
AcDbArc
 50
164.9381082228766
 51
195.0618917770951
  0
ARC
  5
1E9
102
{ACAD_REACTORS
330
240
330
241
102
}
330
A3
100
AcDbEntity
  8
0
  6
Continuous
 62
     2
100
AcDbCircle
 10
-85.92211715442625
 20
15.98968650713786
 30
0.0
 40
1.639695123940497
100
AcDbArc
 50
84.84185523036533
 51
164.9381082228902
  0
ARC
  5
1EA
102
{ACAD_REACTORS
330
244
330
245
102
}
330
A3
100
AcDbEntity
  8
0
  6
Continuous
 62
     2
100
AcDbCircle
 10
-90.75213140858813
 20
17.13630366352706
 30
0.0
 40
0.3157169230765482
100
AcDbArc
 50
115.3740086783562
 51
180.0
  0
ARC
  5
1EB
102
{ACAD_REACTORS
330
244
330
245
102
}
330
A3
100
AcDbEntity
  8
0
  6
Continuous
 62
     2
100
AcDbCircle
 10
-90.75213140858813
 20
19.3545868634632
 30
0.0
 40
0.3157169230768204
100
AcDbArc
 50
180.0
 51
244.6259913216352
  0
ARC
  5
1EC
102
{ACAD_REACTORS
330
244
330
245
102
}
330
A3
100
AcDbEntity
  8
0
  6
Continuous
 62
     2
100
AcDbCircle
 10
-90.74651527327813
 20
18.25728720440097
 30
0.0
 40
2.018561131933266
100
AcDbArc
 50
269.8110329575834
 51
90.18896704241658
  0
ARC
  5
1ED
102
{ACAD_REACTORS
330
244
330
245
102
}
330
A3
100
AcDbEntity
  8
0
  6
Continuous
 62
     2
100
AcDbCircle
 10
-90.75213140858813
 20
16.55445225683198
 30
0.0
 40
0.3157169230768204
100
AcDbArc
 50
180.0
 51
269.8110329574335
  0
ARC
  5
1EE
102
{ACAD_REACTORS
330
242
330
243
102
}
330
A3
100
AcDbEntity
  8
0
  6
Continuous
 62
     2
100
AcDbCircle
 10
-69.68867119385763
 20
16.30754829851176
 30
0.0
 40
0.5115800601944176
100
AcDbArc
 50
109.3371432194852
 51
151.47852674242
  0
ARC
  5
1EF
102
{ACAD_REACTORS
330
242
330
243
102
}
330
A3
100
AcDbEntity
  8
0
  6
Continuous
 62
     2
100
AcDbCircle
 10
-69.68867119385763
 20
15.89740543983416
 30
0.0
 40
0.5115800601960208
100
AcDbArc
 50
208.5214732576864
 51
246.6277221118398
  0
ARC
  5
1F0
102
{ACAD_REACTORS
330
242
330
243
102
}
330
A3
100
AcDbEntity
  8
0
  6
Continuous
 62
     2
100
AcDbCircle
 10
-70.23854351863503
 20
16.10247686917265
 30
0.0
 40
1.205656168393001
100
AcDbArc
 50
164.938108222903
 51
195.0618917770894
  0
ARC
  5
1F1
102
{ACAD_REACTORS
330
242
330
243
102
}
330
A3
100
AcDbEntity
  8
0
  6
Continuous
 62
     2
100
AcDbCircle
 10
-69.81941567517333
 20
15.98968650713786
 30
0.0
 40
1.639695123940099
100
AcDbArc
 50
90.0
 51
164.9381082228995
  0
ARC
  5
1F2
102
{ACAD_REACTORS
330
246
330
247
102
}
330
A3
100
AcDbEntity
  8
0
  6
Continuous
 62
     2
100
AcDbCircle
 10
-79.24641076787702
 20
19.46166734534708
 30
0.0
 40
1.526904761905769
100
AcDbArc
 50
90.0
 51
270.0
  0
ARC
  5
1F3
102
{ACAD_REACTORS
330
24A
330
24B
102
}
330
A3
100
AcDbEntity
  8
0
  6
Continuous
 62
     2
100
AcDbCircle
 10
-85.98910151310284
 20
19.97260243714166
 30
0.0
 40
0.3528638246710898
100
AcDbArc
 50
270.0
 51
90.0
  0
ARC
  5
1F4
102
{ACAD_REACTORS
330
244
330
245
102
}
330
A3
100
AcDbEntity
  8
0
  6
Continuous
 62
     2
100
AcDbCircle
 10
-93.32768009511994
 20
19.96029962861817
 30
0.0
 40
0.3157169230760886
100
AcDbArc
 50
90.0
 51
180.0
  0
ARC
  5
1F5
102
{ACAD_REACTORS
330
244
330
245
102
}
330
A3
100
AcDbEntity
  8
0
  6
Continuous
 62
     2
100
AcDbCircle
 10
-91.32926238653533
 20
18.24544526349538
 30
0.0
 40
0.9118975235576555
100
AcDbArc
 50
115.1944106485211
 51
244.8055893514893
  0
ARC
  5
1F6
102
{ACAD_REACTORS
330
244
330
245
102
}
330
A3
100
AcDbEntity
  8
0
  6
Continuous
 62
     2
100
AcDbCircle
 10
-91.85184683411035
 20
17.13461551743265
 30
0.0
 40
0.3157169230766215
100
AcDbArc
 50
0.0
 51
64.80558935144627
  0
ARC
  5
1F7
102
{ACAD_REACTORS
330
244
330
245
102
}
330
A3
100
AcDbEntity
  8
0
  6
Continuous
 62
     2
100
AcDbCircle
 10
-93.92157477186643
 20
14.99981672265065
 30
0.0
 40
0.4242446153828041
100
AcDbArc
 50
180.0
 51
270.0
  0
ARC
  5
1F8
102
{ACAD_REACTORS
330
246
330
247
102
}
330
A3
100
AcDbEntity
  8
0
  6
Continuous
 62
     2
100
AcDbCircle
 10
-79.03013875771182
 20
19.61839852346756
 30
0.0
 40
0.5179085730133691
100
AcDbArc
 50
38.12041979714152
 51
141.8795802028663
  0
ARC
  5
1F9
102
{ACAD_REACTORS
330
246
330
247
102
}
330
A3
100
AcDbEntity
  8
0
  6
Continuous
 62
     2
100
AcDbCircle
 10
-78.83039872136564
 20
19.46166734534708
 30
0.0
 40
0.7717997786796044
100
AcDbArc
 50
141.8795802028469
 51
218.1204197971562
  0
ARC
  5
1FA
102
{ACAD_REACTORS
330
248
330
249
102
}
330
A3
100
AcDbEntity
  8
0
  6
Continuous
 62
     2
100
AcDbCircle
 10
-82.99108623850535
 20
16.64105187947607
 30
0.0
 40
2.065479772208637
100
AcDbArc
 50
242.4518518243384
 51
297.548148175686
  0
ARC
  5
1FB
102
{ACAD_REACTORS
330
248
330
249
102
}
330
A3
100
AcDbEntity
  8
0
  6
Continuous
 62
     2
100
AcDbCircle
 10
-82.99108623850535
 20
15.56390185886986
 30
0.0
 40
2.065479772208689
100
AcDbArc
 50
62.45185182430813
 51
117.5481481756674
  0
ARC
  5
1FC
102
{ACAD_REACTORS
330
248
330
249
102
}
330
A3
100
AcDbEntity
  8
0
  6
Continuous
 62
     2
100
AcDbCircle
 10
-83.27202613033873
 20
16.10247686917265
 30
0.0
 40
1.458034083651626
100
AcDbArc
 50
117.5481481756609
 51
242.451851824336
  0
ARC
  5
1FD
102
{ACAD_REACTORS
330
248
330
249
102
}
330
A3
100
AcDbEntity
  8
0
  6
Continuous
 62
     2
100
AcDbCircle
 10
-82.71014634667213
 20
16.10247686917265
 30
0.0
 40
1.458034083652017
100
AcDbArc
 50
297.5481481757046
 51
62.45185182429849
  0
ARC
  5
1FE
102
{ACAD_REACTORS
330
246
330
247
102
}
330
A3
100
AcDbEntity
  8
0
  6
Continuous
 62
     2
100
AcDbCircle
 10
-79.03013875771182
 20
19.30493616722654
 30
0.0
 40
0.5179085730134542
100
AcDbArc
 50
218.1204197971331
 51
321.8795802028591
  0
ARC
  5
1FF
102
{ACAD_REACTORS
330
246
330
247
102
}
330
A3
100
AcDbEntity
  8
0
  6
Continuous
 62
     2
100
AcDbCircle
 10
-79.22987879405804
 20
19.46166734534708
 30
0.0
 40
0.7717997786795702
100
AcDbArc
 50
321.8795802028399
 51
38.12041979715704
  0
ARC
  5
200
102
{ACAD_REACTORS
330
244
330
245
102
}
330
A3
100
AcDbEntity
  8
0
  6
Continuous
 62
     2
100
AcDbCircle
 10
-88.44826268114954
 20
14.99981672265065
 30
0.0
 40
0.4242446153832002
100
AcDbArc
 50
270.0
 51
0.0
  0
ARC
  5
201
102
{ACAD_REACTORS
330
244
330
245
102
}
330
A3
100
AcDbEntity
  8
0
  6
Continuous
 62
     2
100
AcDbCircle
 10
-88.44826268114954
 20
20.56432749185089
 30
0.0
 40
0.4242446153839126
100
AcDbArc
 50
0.0
 51
90.0
  0
ARC
  5
202
102
{ACAD_REACTORS
330
244
330
245
102
}
330
A3
100
AcDbEntity
  8
0
  6
Continuous
 62
     2
100
AcDbCircle
 10
-93.92157477186643
 20
20.56432749185089
 30
0.0
 40
0.4242446153838806
100
AcDbArc
 50
90.0
 51
180.0
  0
ARC
  5
203
102
{ACAD_REACTORS
330
244
330
245
102
}
330
A3
100
AcDbEntity
  8
0
  6
Continuous
 62
     2
100
AcDbCircle
 10
-91.85184683411035
 20
15.60384458590104
 30
0.0
 40
0.3157169230766499
100
AcDbArc
 50
270.0
 51
0.0
  0
ARC
  5
204
102
{ACAD_REACTORS
330
244
330
245
102
}
330
A3
100
AcDbEntity
  8
0
  6
Continuous
 62
     2
100
AcDbCircle
 10
-91.85184683411035
 20
19.35627500955755
 30
0.0
 40
0.315716923076069
100
AcDbArc
 50
295.1944106485669
 51
0.0
  0
ARC
  5
205
102
{ACAD_REACTORS
330
244
330
245
102
}
330
A3
100
AcDbEntity
  8
0
  6
Continuous
 62
     2
100
AcDbCircle
 10
-91.85184683411035
 20
19.96029962861817
 30
0.0
 40
0.3157169230766215
100
AcDbArc
 50
0.0
 51
90.0
  0
ARC
  5
206
102
{ACAD_REACTORS
330
244
330
245
102
}
330
A3
100
AcDbEntity
  8
0
  6
Continuous
 62
     2
100
AcDbCircle
 10
-93.32768009511994
 20
15.60384458590104
 30
0.0
 40
0.3157169230755983
100
AcDbArc
 50
180.0
 51
270.0
  0
ARC
  5
207
102
{ACAD_REACTORS
330
24A
330
24B
102
}
330
A3
100
AcDbEntity
  8
0
  6
Continuous
 62
     2
100
AcDbCircle
 10
-85.54762898686442
 20
19.93320646591914
 30
0.0
 40
1.055365641333651
100
AcDbArc
 50
270.0
 51
90.0
  0
ARC
  5
208
102
{ACAD_REACTORS
330
242
330
243
102
}
330
A3
100
AcDbEntity
  8
0
  6
Continuous
 62
     2
100
AcDbCircle
 10
-69.81941567517333
 20
16.21526723120755
 30
0.0
 40
1.639695123940516
100
AcDbArc
 50
195.0618917770985
 51
275.1581447696762
  0
ARC
  5
209
102
{ACAD_REACTORS
330
242
330
243
102
}
330
A3
100
AcDbEntity
  8
0
  6
Continuous
 62
     2
100
AcDbCircle
 10
-70.10827176990924
 20
19.41515781442919
 30
0.0
 40
4.852596863498882
100
AcDbArc
 50
275.1581447696373
 51
285.9799912583383
  0
ARC
  5
20A
102
{ACAD_REACTORS
330
242
330
243
102
}
330
A3
100
AcDbEntity
  8
0
  6
Continuous
 62
     2
100
AcDbCircle
 10
-69.95039889481643
 20
17.51294323458089
 30
0.0
 40
2.227384008972776
100
AcDbArc
 50
288.4480761181333
 51
301.9309089499387
  0
ARC
  5
20B
102
{ACAD_REACTORS
330
242
330
243
102
}
330
A3
100
AcDbEntity
  8
0
  6
Continuous
 62
     2
100
AcDbCircle
 10
-69.53223116115444
 20
16.25939745854416
 30
0.0
 40
0.9059297849852112
100
AcDbArc
 50
246.6277221118105
 51
288.4480761180789
  0
ARC
  5
20C
102
{ACAD_REACTORS
330
242
330
243
102
}
330
A3
100
AcDbEntity
  8
0
  6
Continuous
 62
     2
100
AcDbCircle
 10
-69.31131393577613
 20
16.10247686917265
 30
0.0
 40
0.9410597353350567
100
AcDbArc
 50
151.4785267423585
 51
208.5214732576663
  0
ARC
  5
20D
102
{ACAD_REACTORS
330
242
330
243
102
}
330
A3
100
AcDbEntity
  8
0
  6
Continuous
 62
     2
100
AcDbCircle
 10
-69.54200119575393
 20
15.88959331812876
 30
0.0
 40
0.9545230068260899
100
AcDbArc
 50
90.0
 51
109.3371432194297
  0
ARC
  5
20E
102
{ACAD_REACTORS
330
244
330
245
102
}
330
A3
100
AcDbEntity
  8
0
  6
Continuous
 62
     2
100
AcDbCircle
 10
-90.75213140858813
 20
19.96012215196996
 30
0.0
 40
0.3157169230761851
100
AcDbArc
 50
90.1889670425665
 51
180.0
  0
ARC
  5
20F
102
{ACAD_REACTORS
330
244
330
245
102
}
330
A3
100
AcDbEntity
  8
0
  6
Continuous
 62
     2
100
AcDbCircle
 10
-91.27817410667603
 20
18.24544526349538
 30
0.0
 40
0.9118481501443755
100
AcDbArc
 50
295.3740086781789
 51
64.62599132181052
  0
ARC
  5
210
102
{ACAD_REACTORS
330
240
330
241
102
}
330
A3
100
AcDbEntity
  8
0
  6
Continuous
 62
     2
100
AcDbCircle
 10
-86.05310037406934
 20
17.51294323458134
 30
0.0
 40
2.227384008972717
100
AcDbArc
 50
288.4480761181338
 51
301.9309089499637
  0
ARC
  5
211
102
{ACAD_REACTORS
330
240
330
241
102
}
330
A3
100
AcDbEntity
  8
0
  6
Continuous
 62
     2
100
AcDbCircle
 10
-85.63493264040844
 20
16.25939745854416
 30
0.0
 40
0.9059297849848165
100
AcDbArc
 50
246.6277221118682
 51
288.4480761181538
  0
ARC
  5
212
102
{ACAD_REACTORS
330
240
330
241
102
}
330
A3
100
AcDbEntity
  8
0
  6
Continuous
 62
     2
100
AcDbCircle
 10
-85.79137267311054
 20
15.89740543983416
 30
0.0
 40
0.5115800601947508
100
AcDbArc
 50
208.5214732576847
 51
246.627722111831
  0
ARC
  5
213
102
{ACAD_REACTORS
330
240
330
241
102
}
330
A3
100
AcDbEntity
  8
0
  6
Continuous
 62
     2
100
AcDbCircle
 10
-85.63493264040844
 20
15.9455562798012
 30
0.0
 40
0.9059297849852942
100
AcDbArc
 50
71.55192388185856
 51
113.3722778881306
  0
ARC
  5
214
102
{ACAD_REACTORS
330
240
330
241
102
}
330
A3
100
AcDbEntity
  8
0
  6
Continuous
 62
     2
100
AcDbCircle
 10
-86.21097324916215
 20
12.78979592391684
 30
0.0
 40
4.852596863497988
100
AcDbArc
 50
74.02000874164712
 51
84.84185523037608
  0
CIRCLE
  5
215
102
{ACAD_REACTORS
330
244
330
245
102
}
330
A3
100
AcDbEntity
  8
0
  6
Continuous
 62
     2
100
AcDbCircle
 10
-91.30198912134884
 20
18.24544526349538
 30
0.0
 40
0.4709789327785074
  0
CIRCLE
  5
216
330
A3
100
AcDbEntity
  8
1
  6
Continuous
 62
     2
100
AcDbCircle
 10
-85.84581938724924
 20
28.40707210725097
 30
0.0
 40
1.25
  0
CIRCLE
  5
217
330
A3
100
AcDbEntity
  8
1
  6
Continuous
 62
     2
100
AcDbCircle
 10
-85.84581938724924
 20
28.40707210725097
 30
0.0
 40
2.5
  0
MTEXT
  5
218
330
A3
100
AcDbEntity
  8
1
 62
     7
100
AcDbMText
 10
-241.5376697470609
 20
29.78207210725108
 30
0.0
 40
3.5
 41
0.0
 71
     5
 72
     1
  1
D
  7
CONVERTER_11
 73
     1
 44
1.20048019207683
  0
MTEXT
  5
219
330
A3
100
AcDbEntity
  8
1
 62
     7
100
AcDbMText
 10
-241.5376697470609
 20
82.28207210725108
 30
0.0
 40
3.5
 41
0.0
 71
     5
 72
     1
  1
C
  7
CONVERTER_11
 73
     1
 44
1.20048019207683
  0
MTEXT
  5
21A
330
A3
100
AcDbEntity
  8
1
 62
     7
100
AcDbMText
 10
-241.5376697470609
 20
132.2820721072511
 30
0.0
 40
3.5
 41
0.0
 71
     5
 72
     1
  1
B
  7
CONVERTER_11
 73
     1
 44
1.20048019207683
  0
MTEXT
  5
21B
330
A3
100
AcDbEntity
  8
1
 62
     7
100
AcDbMText
 10
-241.5376697470609
 20
184.7820721072511
 30
0.0
 40
3.5
 41
0.0
 71
     5
 72
     1
  1
A
  7
CONVERTER_11
 73
     1
 44
1.20048019207683
  0
MTEXT
  5
21C
330
A3
100
AcDbEntity
  8
1
 62
     7
100
AcDbMText
 10
28.71233025293739
 20
4.78207210725108
 30
0.0
 40
3.5
 41
0.0
 71
     5
 72
     1
  1
6
  7
CONVERTER_11
 73
     1
 44
1.20048019207683
  0
MTEXT
  5
21D
330
A3
100
AcDbEntity
  8
1
 62
     7
100
AcDbMText
 10
-20.53766974706189
 20
4.78207210725108
 30
0.0
 40
3.5
 41
0.0
 71
     5
 72
     1
  1
5
  7
CONVERTER_11
 73
     1
 44
1.20048019207683
  0
MTEXT
  5
21E
330
A3
100
AcDbEntity
  8
1
 62
     7
100
AcDbMText
 10
-70.53766974706194
 20
4.78207210725108
 30
0.0
 40
3.5
 41
0.0
 71
     5
 72
     1
  1
4
  7
CONVERTER_11
 73
     1
 44
1.20048019207683
  0
MTEXT
  5
21F
330
A3
100
AcDbEntity
  8
1
 62
     7
100
AcDbMText
 10
-120.5376697470619
 20
4.78207210725108
 30
0.0
 40
3.5
 41
0.0
 71
     5
 72
     1
  1
3
  7
CONVERTER_11
 73
     1
 44
1.20048019207683
  0
MTEXT
  5
220
330
A3
100
AcDbEntity
  8
1
 62
     7
100
AcDbMText
 10
-170.5376697470619
 20
4.78207210725108
 30
0.0
 40
3.5
 41
0.0
 71
     5
 72
     1
  1
2
  7
CONVERTER_11
 73
     1
 44
1.20048019207683
  0
MTEXT
  5
221
330
A3
100
AcDbEntity
  8
1
 62
     7
100
AcDbMText
 10
-219.7876697470615
 20
4.78207210725108
 30
0.0
 40
3.5
 41
0.0
 71
     5
 72
     1
  1
1
  7
CONVERTER_11
 73
     1
 44
1.20048019207683
  0
MTEXT
  5
222
330
A3
100
AcDbEntity
  8
1
 62
     7
100
AcDbMText
 10
50.46233025293719
 20
29.78207210725108
 30
0.0
 40
3.5
 41
0.0
 71
     5
 72
     1
  1
D
  7
CONVERTER_11
 73
     1
 44
1.20048019207683
  0
MTEXT
  5
223
330
A3
100
AcDbEntity
  8
1
 62
     7
100
AcDbMText
 10
50.46233025293719
 20
132.282072107253
 30
0.0
 40
3.5
 41
0.0
 71
     5
 72
     1
  1
B
  7
CONVERTER_11
 73
     1
 44
1.20048019207683
  0
MTEXT
  5
224
330
A3
100
AcDbEntity
  8
1
 62
     7
100
AcDbMText
 10
50.46233025293719
 20
184.7820721072511
 30
0.0
 40
3.5
 41
0.0
 71
     5
 72
     1
  1
A
  7
CONVERTER_11
 73
     1
 44
1.20048019207683
  0
MTEXT
  5
225
330
A3
100
AcDbEntity
  8
1
 62
     7
100
AcDbMText
 10
50.46233025293719
 20
82.28207210725301
 30
0.0
 40
3.5
 41
0.0
 71
     5
 72
     1
  1
C
  7
CONVERTER_11
 73
     1
 44
1.20048019207683
  0
MTEXT
  5
226
330
A3
100
AcDbEntity
  8
1
 62
     3
100
AcDbMText
 10
-56.17949212220191
 20
194.0733802625499
 30
0.0
 40
1.8
 41
0.0
 71
     7
 72
     1
  3
Transfer or duplication of this document as well as the utilisation or\Pcommunication of its content are not permitted unless express consent\Pis granted. Violations give rise to claims for damages. All rights reserved\Pin case of patent, utility mo
  1
del or design patent registrations.\PTolerance specifications do not include clearances inherent in the design.
  7
CONVERTER_11
 73
     1
 44
0.99639855942377
  0
MTEXT
  5
227
330
A3
100
AcDbEntity
  8
1
 62
     3
100
AcDbMText
 10
-239.03260196099
 20
194.07338026255
 30
0.0
 40
1.8
 41
0.0
 71
     7
 72
     1
  3
Weitergabe sowie Vervielfältigung dieses Dokuments, Verwertung und\PMitteilung seines Inhalts sind verboten, soweit nicht ausdrücklich gestattet.\PZuwiderhandlungen verpflichten zu Schadenersatz. Alle Rechte für den Fall\Pder Patent-, Gebrauchsmuste
  1
r- oder Designeintragung vorbehalten.\PBauartbedingtes Spiel ist in den Toleranzangaben nicht berücksichtigt.
  7
CONVERTER_11
 73
     1
 44
0.99639855942377
  0
TEXT
  5
228
330
A3
100
AcDbEntity
  8
1
 62
     7
100
AcDbText
 10
-42.20892655179804
 20
25.58207210725109
 30
0.0
 40
2.5
  1
/
 41
0.9
  7
CONVERTER_11
100
AcDbText
  0
TEXT
  5
22A
330
A3
100
AcDbEntity
  8
1
 62
     7
100
AcDbText
 10
-40.05256205475604
 20
25.58207210725109
 30
0.0
 40
2.5
  1
00
 41
0.81
  7
CONVERTER_12
100
AcDbText
  0
MTEXT
  5
22C
330
A3
100
AcDbEntity
  8
1
 62
     3
100
AcDbMText
 10
-53.18247427381184
 20
17.08207210725109
 30
0.0
 40
2.5
 41
0.0
 71
     8
 72
     1
  1
26.07.2022
  7
CONVERTER_13
 73
     1
 44
1.32052821128451
  0
MTEXT
  5
22D
330
A3
100
AcDbEntity
  8
1
 62
     2
100
AcDbMText
 10
-33.95607802873894
 20
31.78207210725108
 30
0.0
 40
1.8
 41
0.0
 71
     1
 72
     1
  1
article-no.
  7
CONVERTER_11
 73
     1
 44
1.32052821128451
  0
MTEXT
  5
22E
330
A3
100
AcDbEntity
  8
1
 62
     2
100
AcDbMText
 10
-44.18247427381184
 20
23.28207210725108
 30
0.0
 40
1.8
 41
0.0
 71
     1
 72
     1
  1
document-type
  7
CONVERTER_11
 73
     1
 44
1.20048019207683
  0
TEXT
  5
22F
330
A3
100
AcDbEntity
  8
1
 62
     3
100
AcDbText
 10
-44.18247427381184
 20
17.08207210725109
 30
0.0
 40
2.5
  1
TECDOC 2D_Productdrawing
 41
0.81
  7
CONVERTER_12
100
AcDbText
  0
TEXT
  5
230
330
A3
100
AcDbEntity
  8
1
 62
     7
100
AcDbText
 10
-60.08247427381184
 20
25.58207210725109
 30
0.0
 40
2.5
  1
01471840
 41
0.81
  7
CONVERTER_12
100
AcDbText
  0
MTEXT
  5
231
330
A3
100
AcDbEntity
  8
1
 62
     3
100
AcDbMText
 10
5.70312611210016
 20
25.58207210725115
 30
0.0
 40
2.5
 41
0.0
 71
     8
 72
     1
  1
2:1
  7
CONVERTER_13
 73
     1
 44
1.32052821128451
  0
MTEXT
  5
232
330
A3
100
AcDbEntity
  8
1
 62
     2
100
AcDbMText
 10
2.54392197126066
 20
31.78207210725108
 30
0.0
 40
1.8
 41
0.0
 71
     1
 72
     1
  1
scale
  7
CONVERTER_11
 73
     1
 44
1.20048019207683
  0
MTEXT
  5
233
330
A3
100
AcDbEntity
  8
1
 62
     3
100
AcDbMText
 10
-72.38247427381182
 20
28.40707210725108
 30
0.0
 40
2.5
 41
0.0
 71
     5
 72
     1
  1
DIN A4
  7
CONVERTER_11
 73
     1
 44
1.20048019207683
  0
MTEXT
  5
234
330
A3
100
AcDbEntity
  8
1
 62
     2
100
AcDbMText
 10
-60.18247427381184
 20
14.78207210725108
 30
0.0
 40
1.8
 41
0.0
 71
     1
 72
     1
  1
description
  7
CONVERTER_11
 73
     1
 44
1.20048019207683
  0
MTEXT
  5
235
330
A3
100
AcDbEntity
  8
1
 62
     7
100
AcDbMText
 10
-6.61007201043634
 20
10.53207210725125
 30
0.0
 40
3.0
 41
0.0
 71
     5
 72
     1
  1
UCT-WMT (18X4)
  7
CONVERTER_12
 73
     1
 44
1.20048019207683
  0
TEXT
  5
236
330
A3
100
AcDbEntity
  8
1
 62
     2
100
AcDbText
 10
-74.14716546399825
 20
8.53207210725108
 30
0.0
 40
1.8
  1
1
 41
0.9
  7
CONVERTER_11
100
AcDbText
  0
TEXT
  5
237
330
A3
100
AcDbEntity
  8
1
 62
     2
100
AcDbText
 10
-89.93620930346972
 20
8.48282345344919
 30
0.0
 40
1.8
  1
1
 41
0.9
  7
CONVERTER_11
100
AcDbText
  0
TEXT
  5
238
330
A3
100
AcDbEntity
  8
1
 62
     2
100
AcDbText
 10
-98.58247427381173
 20
8.52305489225935
 30
0.0
 40
1.8
  1
page
 41
0.9
  7
CONVERTER_11
100
AcDbText
  0
TEXT
  5
239
330
A3
100
AcDbEntity
  8
1
 62
     2
100
AcDbText
 10
-79.38247427381194
 20
8.52305489225958
 30
0.0
 40
1.8
  1
of
 41
0.9
  7
CONVERTER_11
100
AcDbText
  0
MTEXT
  5
23A
330
A3
100
AcDbEntity
  8
1
 62
     2
100
AcDbMText
 10
-60.08247427381184
 20
23.28207210725108
 30
0.0
 40
1.8
 41
0.0
 71
     1
 72
     1
  1
date
  7
CONVERTER_11
 73
     1
 44
1.20048019207683
  0
TEXT
  5
23B
330
A3
100
AcDbEntity
  8
1
 62
     7
100
AcDbText
 10
-33.95607802873894
 20
25.58207210725109
 30
0.0
 40
2.5
  1
0801462
 41
0.81
  7
CONVERTER_12
100
AcDbText
  0
MTEXT
  5
23C
330
A3
100
AcDbEntity
  8
1
 62
     3
100
AcDbMText
 10
42.96233025293807
 20
37.78207210725108
 30
0.0
 40
2.0
 41
0.0
 71
     9
 72
     1
  1
- EN ISO 291 23/50
  7
CONVERTER_11
 73
     1
 44
1.20048019207683
  0
MTEXT
  5
23D
330
A3
100
AcDbEntity
  8
1
 62
     2
100
AcDbMText
 10
11.94392197126066
 20
24.28207210725108
 30
0.0
 40
1.5
 41
0.0
 71
     4
 72
     1
  1
- Simplified representation\P- Document excluded\P  from change process\P- Linear dimensions [mm]\P 
  7
CONVERTER_11
 73
     1
 44
1.20048019207683
  0
MTEXT
  5
23F
330
A3
100
AcDbEntity
  8
1
 62
     2
100
AcDbMText
 10
-60.08247427381184
 20
31.78207210725108
 30
0.0
 40
1.8
 41
0.0
 71
     1
 72
     1
  1
document-no. / ri
  7
CONVERTER_14
 73
     1
 44
1.32052821128451
  0
HATCH
  5
240
330
A3
100
AcDbEntity
  8
1
  6
Continuous
 62
     2
100
AcDbHatch
 10
0.0
 20
0.0
 30
0.0
210
0.0
220
0.0
230
1.0
  2
CUSTOM0
 70
     0
 71
     1
 91
        1
 92
        1
 93
       14
 72
     2
 10
-86.34124499788905
 20
16.10247686917265
 40
1.205656168390943
 50
164.9381082228766
 51
195.0618917770951
 73
     1
 72
     2
 10
-85.92211715442625
 20
16.21526723120755
 40
1.639695123939411
 50
195.0618917770926
 51
275.1581447696363
 73
     1
 72
     2
 10
-86.21097324916215
 20
19.41515781442919
 40
4.852596863498267
 50
275.1581447696238
 51
285.9799912583526
 73
     1
 72
     1
 10
-84.87504533204435
 20
14.75007550862827
 11
-84.87504533204435
 21
15.62259251543159
 72
     2
 10
-86.05310037406934
 20
17.51294323458134
 40
2.227384008972717
 50
58.06909105003628
 51
71.55192388186626
 73
     0
 72
     2
 10
-85.63493264040844
 20
16.25939745854416
 40
0.9059297849848165
 50
71.55192388184615
 51
113.3722778881318
 73
     0
 72
     2
 10
-85.79137267311054
 20
15.89740543983416
 40
0.5115800601947508
 50
113.372277888169
 51
151.4785267423153
 73
     0
 72
     2
 10
-85.41401541503015
 20
16.10247686917265
 40
0.9410597353333294
 50
151.4785267423024
 51
208.5214732577306
 73
     0
 72
     2
 10
-85.79137267311054
 20
16.30754829851176
 40
0.5115800601948147
 50
208.5214732576847
 51
246.6277221118082
 73
     0
 72
     2
 10
-85.63493264040844
 20
15.9455562798012
 40
0.9059297849852942
 50
246.6277221118694
 51
288.4480761181414
 73
     0
 72
     2
 10
-86.05310037406934
 20
14.69201050376458
 40
2.227384008973467
 50
288.4480761181333
 51
301.9309089499629
 73
     0
 72
     1
 10
-84.87504533204435
 20
16.58236122291439
 11
-84.87504533204435
 21
17.45487822971765
 72
     2
 10
-86.21097324916215
 20
12.78979592391684
 40
4.852596863497988
 50
74.02000874164712
 51
84.84185523037608
 73
     1
 72
     2
 10
-85.92211715442625
 20
15.98968650713786
 40
1.639695123940497
 50
84.84185523036533
 51
164.9381082228902
 73
     1
 97
       14
330
214
330
15B
330
1E3
330
213
330
1E4
330
1E5
330
212
330
211
330
210
330
15C
330
1E6
330
1E7
330
1E8
330
1E9
 75
     1
 76
     2
 52
45.0
 41
0.1
 77
     0
 78
     1
 53
45.0
 43
62.7811309658083
 44
-72.3161373035813
 45
-0.1414213562373095
 46
0.0
 79
     0
 98
        1
 10
0.0
 20
0.0
  0
HATCH
  5
241
330
A3
100
AcDbEntity
  8
1
  6
Continuous
 62
     2
100
AcDbHatch
 10
0.0
 20
0.0
 30
0.0
210
0.0
220
0.0
230
1.0
  2
CUSTOM1
 70
     0
 71
     1
 91
        1
 92
        1
 93
       14
 72
     2
 10
-86.34124499788905
 20
16.10247686917265
 40
1.205656168390943
 50
164.9381082228766
 51
195.0618917770951
 73
     1
 72
     2
 10
-85.92211715442625
 20
16.21526723120755
 40
1.639695123939411
 50
195.0618917770926
 51
275.1581447696363
 73
     1
 72
     2
 10
-86.21097324916215
 20
19.41515781442919
 40
4.852596863498267
 50
275.1581447696238
 51
285.9799912583526
 73
     1
 72
     1
 10
-84.87504533204435
 20
14.75007550862827
 11
-84.87504533204435
 21
15.62259251543159
 72
     2
 10
-86.05310037406934
 20
17.51294323458134
 40
2.227384008972717
 50
58.06909105003628
 51
71.55192388186626
 73
     0
 72
     2
 10
-85.63493264040844
 20
16.25939745854416
 40
0.9059297849848165
 50
71.55192388184615
 51
113.3722778881318
 73
     0
 72
     2
 10
-85.79137267311054
 20
15.89740543983416
 40
0.5115800601947508
 50
113.372277888169
 51
151.4785267423153
 73
     0
 72
     2
 10
-85.41401541503015
 20
16.10247686917265
 40
0.9410597353333294
 50
151.4785267423024
 51
208.5214732577306
 73
     0
 72
     2
 10
-85.79137267311054
 20
16.30754829851176
 40
0.5115800601948147
 50
208.5214732576847
 51
246.6277221118082
 73
     0
 72
     2
 10
-85.63493264040844
 20
15.9455562798012
 40
0.9059297849852942
 50
246.6277221118694
 51
288.4480761181414
 73
     0
 72
     2
 10
-86.05310037406934
 20
14.69201050376458
 40
2.227384008973467
 50
288.4480761181333
 51
301.9309089499629
 73
     0
 72
     1
 10
-84.87504533204435
 20
16.58236122291439
 11
-84.87504533204435
 21
17.45487822971765
 72
     2
 10
-86.21097324916215
 20
12.78979592391684
 40
4.852596863497988
 50
74.02000874164712
 51
84.84185523037608
 73
     1
 72
     2
 10
-85.92211715442625
 20
15.98968650713786
 40
1.639695123940497
 50
84.84185523036533
 51
164.9381082228902
 73
     1
 97
       14
330
214
330
15B
330
1E3
330
213
330
1E4
330
1E5
330
212
330
211
330
210
330
15C
330
1E6
330
1E7
330
1E8
330
1E9
 75
     1
 76
     2
 52
45.0
 41
0.1
 77
     0
 78
     1
 53
45.0
 43
62.7811309658083
 44
-72.3161373035813
 45
-0.1414213562373095
 46
0.0
 79
     0
 98
        1
 10
0.0
 20
0.0
  0
HATCH
  5
242
330
A3
100
AcDbEntity
  8
1
  6
Continuous
 62
     2
100
AcDbHatch
 10
0.0
 20
0.0
 30
0.0
210
0.0
220
0.0
230
1.0
  2
CUSTOM2
 70
     0
 71
     1
 91
        1
 92
        1
 93
       18
 72
     2
 10
-69.81941567517333
 20
15.98968650713786
 40
1.639695123940099
 50
90.0
 51
164.9381082228995
 73
     1
 72
     2
 10
-70.23854351863503
 20
16.10247686917265
 40
1.205656168393001
 50
164.938108222903
 51
195.0618917770894
 73
     1
 72
     2
 10
-69.81941567517333
 20
16.21526723120755
 40
1.639695123940516
 50
195.0618917770985
 51
275.1581447696762
 73
     1
 72
     2
 10
-70.10827176990924
 20
19.41515781442919
 40
4.852596863498882
 50
275.1581447696373
 51
285.9799912583383
 73
     1
 72
     1
 10
-68.77234385279255
 20
14.75007550862776
 11
-68.77234385279255
 21
15.62259251543108
 72
     2
 10
-69.95039889481643
 20
17.51294323458089
 40
2.227384008972776
 50
58.06909105006132
 51
71.55192388186677
 73
     0
 72
     2
 10
-69.53223116115444
 20
16.25939745854416
 40
0.9059297849852112
 50
71.55192388192118
 51
113.3722778881895
 73
     0
 72
     2
 10
-69.68867119385763
 20
15.89740543983416
 40
0.5115800601960208
 50
113.3722778881602
 51
151.4785267423136
 73
     0
 72
     2
 10
-69.31131393577613
 20
16.10247686917265
 40
0.9410597353350567
 50
151.4785267423337
 51
208.5214732576415
 73
     0
 72
     2
 10
-69.68867119385763
 20
16.30754829851176
 40
0.5115800601944176
 50
208.52147325758
 51
250.6628567805149
 73
     0
 72
     2
 10
-69.54200119575393
 20
15.88959331812876
 40
0.9545230068260899
 50
250.6628567805703
 51
270.0
 73
     0
 72
     1
 10
-69.54200119575393
 20
16.84411632495485
 11
-68.43836189618582
 21
16.84411632495485
 72
     1
 10
-68.43836189618582
 20
16.84411632495485
 11
-68.43836189618582
 21
14.57557210726745
 72
     1
 10
-68.43836189618582
 20
14.57557210726745
 11
-67.24556919401815
 21
14.57557210726745
 72
     1
 10
-67.24556919401815
 20
14.57557210726745
 11
-67.24556919401815
 21
16.84411632495485
 72
     1
 10
-67.24556919401815
 20
16.84411632495485
 11
-66.43447015654473
 21
16.84411632495485
 72
     1
 10
-66.43447015654473
 20
16.84411632495485
 11
-66.43447015654473
 21
17.62938163107859
 72
     1
 10
-66.43447015654473
 20
17.62938163107859
 11
-69.81941567517333
 21
17.62938163107796
 97
       18
330
1C1
330
1C0
330
1BF
330
1BE
330
1C3
330
15D
330
20D
330
1EE
330
20C
330
1EF
330
20B
330
20A
330
15E
330
209
330
208
330
1F0
330
1F1
330
1C2
 75
     1
 76
     2
 52
45.0
 41
0.1
 77
     0
 78
     1
 53
45.0
 43
62.7811309658083
 44
-72.3161373035813
 45
-0.1414213562373095
 46
0.0
 79
     0
 98
        1
 10
0.0
 20
0.0
  0
HATCH
  5
243
330
A3
100
AcDbEntity
  8
1
  6
Continuous
 62
     2
100
AcDbHatch
 10
0.0
 20
0.0
 30
0.0
210
0.0
220
0.0
230
1.0
  2
CUSTOM3
 70
     0
 71
     1
 91
        1
 92
        1
 93
       18
 72
     2
 10
-69.81941567517333
 20
15.98968650713786
 40
1.639695123940099
 50
90.0
 51
164.9381082228995
 73
     1
 72
     2
 10
-70.23854351863503
 20
16.10247686917265
 40
1.205656168393001
 50
164.938108222903
 51
195.0618917770894
 73
     1
 72
     2
 10
-69.81941567517333
 20
16.21526723120755
 40
1.639695123940516
 50
195.0618917770985
 51
275.1581447696762
 73
     1
 72
     2
 10
-70.10827176990924
 20
19.41515781442919
 40
4.852596863498882
 50
275.1581447696373
 51
285.9799912583383
 73
     1
 72
     1
 10
-68.77234385279255
 20
14.75007550862776
 11
-68.77234385279255
 21
15.62259251543108
 72
     2
 10
-69.95039889481643
 20
17.51294323458089
 40
2.227384008972776
 50
58.06909105006132
 51
71.55192388186677
 73
     0
 72
     2
 10
-69.53223116115444
 20
16.25939745854416
 40
0.9059297849852112
 50
71.55192388192118
 51
113.3722778881895
 73
     0
 72
     2
 10
-69.68867119385763
 20
15.89740543983416
 40
0.5115800601960208
 50
113.3722778881602
 51
151.4785267423136
 73
     0
 72
     2
 10
-69.31131393577613
 20
16.10247686917265
 40
0.9410597353350567
 50
151.4785267423337
 51
208.5214732576415
 73
     0
 72
     2
 10
-69.68867119385763
 20
16.30754829851176
 40
0.5115800601944176
 50
208.52147325758
 51
250.6628567805149
 73
     0
 72
     2
 10
-69.54200119575393
 20
15.88959331812876
 40
0.9545230068260899
 50
250.6628567805703
 51
270.0
 73
     0
 72
     1
 10
-69.54200119575393
 20
16.84411632495485
 11
-68.43836189618582
 21
16.84411632495485
 72
     1
 10
-68.43836189618582
 20
16.84411632495485
 11
-68.43836189618582
 21
14.57557210726745
 72
     1
 10
-68.43836189618582
 20
14.57557210726745
 11
-67.24556919401815
 21
14.57557210726745
 72
     1
 10
-67.24556919401815
 20
14.57557210726745
 11
-67.24556919401815
 21
16.84411632495485
 72
     1
 10
-67.24556919401815
 20
16.84411632495485
 11
-66.43447015654473
 21
16.84411632495485
 72
     1
 10
-66.43447015654473
 20
16.84411632495485
 11
-66.43447015654473
 21
17.62938163107859
 72
     1
 10
-66.43447015654473
 20
17.62938163107859
 11
-69.81941567517333
 21
17.62938163107796
 97
       18
330
1C1
330
1C0
330
1BF
330
1BE
330
1C3
330
15D
330
20D
330
1EE
330
20C
330
1EF
330
20B
330
20A
330
15E
330
209
330
208
330
1F0
330
1F1
330
1C2
 75
     1
 76
     2
 52
45.0
 41
0.1
 77
     0
 78
     1
 53
45.0
 43
62.7811309658083
 44
-72.3161373035813
 45
-0.1414213562373095
 46
0.0
 79
     0
 98
        1
 10
0.0
 20
0.0
  0
HATCH
  5
244
330
A3
100
AcDbEntity
  8
1
  6
Continuous
 62
     2
100
AcDbHatch
 10
0.0
 20
0.0
 30
0.0
210
0.0
220
0.0
230
1.0
  2
CUSTOM4
 70
     0
 71
     1
 91
        4
 92
        1
 93
        8
 72
     2
 10
-93.92157477186643
 20
20.56432749185089
 40
0.4242446153838806
 50
90.0
 51
180.0
 73
     1
 72
     1
 10
-94.34581938724924
 20
20.56432749185089
 11
-94.34581938724924
 21
14.99981672265065
 72
     2
 10
-93.92157477186643
 20
14.99981672265065
 40
0.4242446153828041
 50
180.0
 51
270.0
 73
     1
 72
     1
 10
-93.92157477186643
 20
14.57557210726745
 11
-88.44826268114954
 21
14.57557210726745
 72
     2
 10
-88.44826268114954
 20
14.99981672265065
 40
0.4242446153832002
 50
270.0
 51
360.0
 73
     1
 72
     1
 10
-88.02401806576563
 20
14.99981672265065
 11
-88.02401806576563
 21
20.56432749185089
 72
     2
 10
-88.44826268114954
 20
20.56432749185089
 40
0.4242446153839126
 50
0.0
 51
90.0
 73
     1
 72
     1
 10
-88.44826268114954
 20
20.98857210723477
 11
-93.92157477186643
 21
20.98857210723477
 97
        8
330
201
330
18C
330
200
330
18D
330
1F7
330
18A
330
202
330
18B
 92
       16
 93
       12
 72
     1
 10
-93.32768009511994
 20
15.28812766282439
 11
-91.85184683411035
 21
15.28812766282439
 72
     2
 10
-91.85184683411035
 20
15.60384458590104
 40
0.3157169230766499
 50
270.0
 51
360.0
 73
     1
 72
     1
 10
-91.53612991103373
 20
15.60384458590104
 11
-91.53612991103373
 21
17.13461551743265
 72
     2
 10
-91.85184683411035
 20
17.13461551743265
 40
0.3157169230766215
 50
0.0
 51
64.80558935144627
 73
     1
 72
     2
 10
-91.32926238653533
 20
18.24544526349538
 40
0.9118975235576555
 50
115.1944106485107
 51
244.8055893514789
 73
     0
 72
     2
 10
-91.85184683411035
 20
19.35627500955755
 40
0.315716923076069
 50
295.1944106485669
 51
360.0
 73
     1
 72
     1
 10
-91.53612991103373
 20
19.35627500955755
 11
-91.53612991103373
 21
19.96029962861817
 72
     2
 10
-91.85184683411035
 20
19.96029962861817
 40
0.3157169230766215
 50
0.0
 51
90.0
 73
     1
 72
     1
 10
-91.85184683411035
 20
20.27601655169426
 11
-93.32768009511994
 21
20.27601655169426
 72
     2
 10
-93.32768009511994
 20
19.96029962861817
 40
0.3157169230760886
 50
90.0
 51
180.0
 73
     1
 72
     1
 10
-93.64339701819554
 20
19.96029962861817
 11
-93.64339701819554
 21
15.60384458590104
 72
     2
 10
-93.32768009511994
 20
15.60384458590104
 40
0.3157169230755983
 50
180.0
 51
270.0
 73
     1
 97
       12
330
191
330
1F4
330
190
330
205
330
18F
330
204
330
1F5
330
1F6
330
18E
330
203
330
189
330
206
 92
       16
 93
        8
 72
     2
 10
-91.27817410667603
 20
18.24544526349538
 40
0.9118481501443755
 50
295.3740086781789
 51
424.6259913218105
 73
     1
 72
     2
 10
-90.75213140858813
 20
19.3545868634632
 40
0.3157169230768204
 50
115.3740086783648
 51
180.0
 73
     0
 72
     1
 10
-91.06784833166495
 20
19.3545868634632
 11
-91.06784833166495
 21
19.96012215196996
 72
     2
 10
-90.75213140858813
 20
19.96012215196996
 40
0.3157169230761851
 50
180.0
 51
269.8110329574335
 73
     0
 72
     2
 10
-90.74651527327813
 20
18.25728720440097
 40
2.018561131933266
 50
269.8110329575834
 51
450.1889670424166
 73
     0
 72
     2
 10
-90.75213140858813
 20
16.55445225683198
 40
0.3157169230768204
 50
90.18896704256652
 51
180.0
 73
     0
 72
     1
 10
-91.06784833166495
 20
16.55445225683198
 11
-91.06784833166495
 21
17.13630366352706
 72
     2
 10
-90.75213140858813
 20
17.13630366352706
 40
0.3157169230765482
 50
180.0
 51
244.6259913216438
 73
     0
 97
        8
330
20F
330
1EB
330
1C5
330
20E
330
1EC
330
1ED
330
1C4
330
1EA
 92
       16
 93
        1
 72
     2
 10
-91.30198912134884
 20
18.24544526349538
 40
0.4709789327785074
 50
0.0
 51
360.0
 73
     1
 97
        1
330
215
 75
     1
 76
     2
 52
45.0
 41
0.1
 77
     0
 78
     1
 53
45.0
 43
62.7811309658083
 44
-72.3161373035813
 45
-0.1414213562373095
 46
0.0
 79
     0
 98
        1
 10
0.0
 20
0.0
  0
HATCH
  5
245
330
A3
100
AcDbEntity
  8
1
  6
Continuous
 62
     2
100
AcDbHatch
 10
0.0
 20
0.0
 30
0.0
210
0.0
220
0.0
230
1.0
  2
CUSTOM5
 70
     0
 71
     1
 91
        4
 92
        1
 93
        8
 72
     2
 10
-93.92157477186643
 20
20.56432749185089
 40
0.4242446153838806
 50
90.0
 51
180.0
 73
     1
 72
     1
 10
-94.34581938724924
 20
20.56432749185089
 11
-94.34581938724924
 21
14.99981672265065
 72
     2
 10
-93.92157477186643
 20
14.99981672265065
 40
0.4242446153828041
 50
180.0
 51
270.0
 73
     1
 72
     1
 10
-93.92157477186643
 20
14.57557210726745
 11
-88.44826268114954
 21
14.57557210726745
 72
     2
 10
-88.44826268114954
 20
14.99981672265065
 40
0.4242446153832002
 50
270.0
 51
360.0
 73
     1
 72
     1
 10
-88.02401806576563
 20
14.99981672265065
 11
-88.02401806576563
 21
20.56432749185089
 72
     2
 10
-88.44826268114954
 20
20.56432749185089
 40
0.4242446153839126
 50
0.0
 51
90.0
 73
     1
 72
     1
 10
-88.44826268114954
 20
20.98857210723477
 11
-93.92157477186643
 21
20.98857210723477
 97
        8
330
201
330
18C
330
200
330
18D
330
1F7
330
18A
330
202
330
18B
 92
       16
 93
       12
 72
     1
 10
-93.32768009511994
 20
15.28812766282439
 11
-91.85184683411035
 21
15.28812766282439
 72
     2
 10
-91.85184683411035
 20
15.60384458590104
 40
0.3157169230766499
 50
270.0
 51
360.0
 73
     1
 72
     1
 10
-91.53612991103373
 20
15.60384458590104
 11
-91.53612991103373
 21
17.13461551743265
 72
     2
 10
-91.85184683411035
 20
17.13461551743265
 40
0.3157169230766215
 50
0.0
 51
64.80558935144627
 73
     1
 72
     2
 10
-91.32926238653533
 20
18.24544526349538
 40
0.9118975235576555
 50
115.1944106485107
 51
244.8055893514789
 73
     0
 72
     2
 10
-91.85184683411035
 20
19.35627500955755
 40
0.315716923076069
 50
295.1944106485669
 51
360.0
 73
     1
 72
     1
 10
-91.53612991103373
 20
19.35627500955755
 11
-91.53612991103373
 21
19.96029962861817
 72
     2
 10
-91.85184683411035
 20
19.96029962861817
 40
0.3157169230766215
 50
0.0
 51
90.0
 73
     1
 72
     1
 10
-91.85184683411035
 20
20.27601655169426
 11
-93.32768009511994
 21
20.27601655169426
 72
     2
 10
-93.32768009511994
 20
19.96029962861817
 40
0.3157169230760886
 50
90.0
 51
180.0
 73
     1
 72
     1
 10
-93.64339701819554
 20
19.96029962861817
 11
-93.64339701819554
 21
15.60384458590104
 72
     2
 10
-93.32768009511994
 20
15.60384458590104
 40
0.3157169230755983
 50
180.0
 51
270.0
 73
     1
 97
       12
330
191
330
1F4
330
190
330
205
330
18F
330
204
330
1F5
330
1F6
330
18E
330
203
330
189
330
206
 92
       16
 93
        8
 72
     2
 10
-91.27817410667603
 20
18.24544526349538
 40
0.9118481501443755
 50
295.3740086781789
 51
424.6259913218105
 73
     1
 72
     2
 10
-90.75213140858813
 20
19.3545868634632
 40
0.3157169230768204
 50
115.3740086783648
 51
180.0
 73
     0
 72
     1
 10
-91.06784833166495
 20
19.3545868634632
 11
-91.06784833166495
 21
19.96012215196996
 72
     2
 10
-90.75213140858813
 20
19.96012215196996
 40
0.3157169230761851
 50
180.0
 51
269.8110329574335
 73
     0
 72
     2
 10
-90.74651527327813
 20
18.25728720440097
 40
2.018561131933266
 50
269.8110329575834
 51
450.1889670424166
 73
     0
 72
     2
 10
-90.75213140858813
 20
16.55445225683198
 40
0.3157169230768204
 50
90.18896704256652
 51
180.0
 73
     0
 72
     1
 10
-91.06784833166495
 20
16.55445225683198
 11
-91.06784833166495
 21
17.13630366352706
 72
     2
 10
-90.75213140858813
 20
17.13630366352706
 40
0.3157169230765482
 50
180.0
 51
244.6259913216438
 73
     0
 97
        8
330
20F
330
1EB
330
1C5
330
20E
330
1EC
330
1ED
330
1C4
330
1EA
 92
       16
 93
        1
 72
     2
 10
-91.30198912134884
 20
18.24544526349538
 40
0.4709789327785074
 50
0.0
 51
360.0
 73
     1
 97
        1
330
215
 75
     1
 76
     2
 52
45.0
 41
0.1
 77
     0
 78
     1
 53
45.0
 43
62.7811309658083
 44
-72.3161373035813
 45
-0.1414213562373095
 46
0.0
 79
     0
 98
        1
 10
0.0
 20
0.0
  0
HATCH
  5
246
330
A3
100
AcDbEntity
  8
1
  6
Continuous
 62
     2
100
AcDbHatch
 10
0.0
 20
0.0
 30
0.0
210
0.0
220
0.0
230
1.0
  2
CUSTOM6
 70
     0
 71
     1
 91
        2
 92
        1
 93
       12
 72
     2
 10
-79.24641076787702
 20
19.46166734534708
 40
1.526904761905769
 50
90.0
 51
270.0
 73
     1
 72
     1
 10
-79.24641076787702
 20
17.93476258344177
 11
-76.09609104409614
 21
17.93476258344177
 72
     1
 10
-76.09609104409614
 20
17.93476258344177
 11
-76.09609104409614
 21
18.63277618888415
 72
     1
 10
-76.09609104409614
 20
18.63277618888415
 11
-77.43201887052373
 21
18.63277618888415
 72
     1
 10
-77.43201887052373
 20
18.63277618888415
 11
-77.43201887052373
 21
19.11266054262589
 72
     1
 10
-77.43201887052373
 20
19.11266054262589
 11
-76.09609104409614
 21
19.11266054262589
 72
     1
 10
-76.09609104409614
 20
19.11266054262589
 11
-76.09609104409614
 21
19.81067414806827
 72
     1
 10
-76.09609104409614
 20
19.81067414806827
 11
-77.43201887052373
 21
19.81067414806827
 72
     1
 10
-77.43201887052373
 20
19.81067414806827
 11
-77.43201887052373
 21
20.29055850180995
 72
     1
 10
-77.43201887052373
 20
20.29055850180995
 11
-76.09609104409614
 21
20.29055850180995
 72
     1
 10
-76.09609104409614
 20
20.29055850180995
 11
-76.09609104409614
 21
20.98857210725285
 72
     1
 10
-76.09609104409614
 20
20.98857210725285
 11
-79.24641076787702
 21
20.98857210725285
 97
       12
330
180
330
17A
330
1A1
330
1A0
330
19F
330
19E
330
17B
330
17C
330
17D
330
17E
330
1F2
330
17F
 92
       16
 93
        4
 72
     2
 10
-78.83039872136564
 20
19.46166734534708
 40
0.7717997786796044
 50
141.8795802028469
 51
218.1204197971562
 73
     1
 72
     2
 10
-79.03013875771182
 20
19.30493616722654
 40
0.5179085730134542
 50
218.1204197971331
 51
321.8795802028591
 73
     1
 72
     2
 10
-79.22987879405804
 20
19.46166734534708
 40
0.7717997786795702
 50
321.8795802028399
 51
398.1204197971571
 73
     1
 72
     2
 10
-79.03013875771182
 20
19.61839852346756
 40
0.5179085730133691
 50
38.12041979714152
 51
141.8795802028663
 73
     1
 97
        4
330
1FF
330
1FE
330
1F9
330
1F8
 75
     1
 76
     2
 52
45.0
 41
0.1
 77
     0
 78
     1
 53
45.0
 43
62.7811309658083
 44
-72.3161373035813
 45
-0.1414213562373095
 46
0.0
 79
     0
 98
        1
 10
0.0
 20
0.0
  0
HATCH
  5
247
330
A3
100
AcDbEntity
  8
1
  6
Continuous
 62
     2
100
AcDbHatch
 10
0.0
 20
0.0
 30
0.0
210
0.0
220
0.0
230
1.0
  2
CUSTOM7
 70
     0
 71
     1
 91
        2
 92
        1
 93
       12
 72
     2
 10
-79.24641076787702
 20
19.46166734534708
 40
1.526904761905769
 50
90.0
 51
270.0
 73
     1
 72
     1
 10
-79.24641076787702
 20
17.93476258344177
 11
-76.09609104409614
 21
17.93476258344177
 72
     1
 10
-76.09609104409614
 20
17.93476258344177
 11
-76.09609104409614
 21
18.63277618888415
 72
     1
 10
-76.09609104409614
 20
18.63277618888415
 11
-77.43201887052373
 21
18.63277618888415
 72
     1
 10
-77.43201887052373
 20
18.63277618888415
 11
-77.43201887052373
 21
19.11266054262589
 72
     1
 10
-77.43201887052373
 20
19.11266054262589
 11
-76.09609104409614
 21
19.11266054262589
 72
     1
 10
-76.09609104409614
 20
19.11266054262589
 11
-76.09609104409614
 21
19.81067414806827
 72
     1
 10
-76.09609104409614
 20
19.81067414806827
 11
-77.43201887052373
 21
19.81067414806827
 72
     1
 10
-77.43201887052373
 20
19.81067414806827
 11
-77.43201887052373
 21
20.29055850180995
 72
     1
 10
-77.43201887052373
 20
20.29055850180995
 11
-76.09609104409614
 21
20.29055850180995
 72
     1
 10
-76.09609104409614
 20
20.29055850180995
 11
-76.09609104409614
 21
20.98857210725285
 72
     1
 10
-76.09609104409614
 20
20.98857210725285
 11
-79.24641076787702
 21
20.98857210725285
 97
       12
330
180
330
17A
330
1A1
330
1A0
330
19F
330
19E
330
17B
330
17C
330
17D
330
17E
330
1F2
330
17F
 92
       16
 93
        4
 72
     2
 10
-78.83039872136564
 20
19.46166734534708
 40
0.7717997786796044
 50
141.8795802028469
 51
218.1204197971562
 73
     1
 72
     2
 10
-79.03013875771182
 20
19.30493616722654
 40
0.5179085730134542
 50
218.1204197971331
 51
321.8795802028591
 73
     1
 72
     2
 10
-79.22987879405804
 20
19.46166734534708
 40
0.7717997786795702
 50
321.8795802028399
 51
398.1204197971571
 73
     1
 72
     2
 10
-79.03013875771182
 20
19.61839852346756
 40
0.5179085730133691
 50
38.12041979714152
 51
141.8795802028663
 73
     1
 97
        4
330
1FF
330
1FE
330
1F9
330
1F8
 75
     1
 76
     2
 52
45.0
 41
0.1
 77
     0
 78
     1
 53
45.0
 43
62.7811309658083
 44
-72.3161373035813
 45
-0.1414213562373095
 46
0.0
 79
     0
 98
        1
 10
0.0
 20
0.0
  0
HATCH
  5
248
330
A3
100
AcDbEntity
  8
1
  6
Continuous
 62
     2
100
AcDbHatch
 10
0.0
 20
0.0
 30
0.0
210
0.0
220
0.0
230
1.0
  2
CUSTOM8
 70
     0
 71
     1
 91
        2
 92
        1
 93
        4
 72
     2
 10
-83.27202613033873
 20
16.10247686917265
 40
1.458034083651626
 50
117.5481481756609
 51
242.451851824336
 73
     1
 72
     2
 10
-82.99108623850535
 20
16.64105187947607
 40
2.065479772208637
 50
242.4518518243384
 51
297.548148175686
 73
     1
 72
     2
 10
-82.71014634667213
 20
16.10247686917265
 40
1.458034083652017
 50
297.5481481757046
 51
422.4518518242985
 73
     1
 72
     2
 10
-82.99108623850535
 20
15.56390185886986
 40
2.065479772208689
 50
62.45185182430813
 51
117.5481481756674
 73
     1
 97
        4
330
1FD
330
1FA
330
1FC
330
1FB
 92
       16
 93
        4
 72
     2
 10
-82.99108623850535
 20
16.25920804729319
 40
0.5179085730132985
 50
38.12041979716213
 51
141.8795802028554
 73
     1
 72
     2
 10
-82.79134620215933
 20
16.10247686917265
 40
0.7717997786795465
 50
141.8795802028284
 51
218.1204197971623
 73
     1
 72
     2
 10
-82.99108623850535
 20
15.94574569105279
 40
0.51790857301382
 50
218.1204197971898
 51
321.8795802027927
 73
     1
 72
     2
 10
-83.19082627485173
 20
16.10247686917265
 40
0.7717997786795384
 50
321.8795802028428
 51
398.1204197971664
 73
     1
 97
        4
330
1E0
330
1E1
330
1E2
330
1DF
 75
     1
 76
     2
 52
45.0
 41
0.1
 77
     0
 78
     1
 53
45.0
 43
62.7811309658083
 44
-72.3161373035813
 45
-0.1414213562373095
 46
0.0
 79
     0
 98
        1
 10
0.0
 20
0.0
  0
HATCH
  5
249
330
A3
100
AcDbEntity
  8
1
  6
Continuous
 62
     2
100
AcDbHatch
 10
0.0
 20
0.0
 30
0.0
210
0.0
220
0.0
230
1.0
  2
CUSTOM9
 70
     0
 71
     1
 91
        2
 92
        1
 93
        4
 72
     2
 10
-83.27202613033873
 20
16.10247686917265
 40
1.458034083651626
 50
117.5481481756609
 51
242.451851824336
 73
     1
 72
     2
 10
-82.99108623850535
 20
16.64105187947607
 40
2.065479772208637
 50
242.4518518243384
 51
297.548148175686
 73
     1
 72
     2
 10
-82.71014634667213
 20
16.10247686917265
 40
1.458034083652017
 50
297.5481481757046
 51
422.4518518242985
 73
     1
 72
     2
 10
-82.99108623850535
 20
15.56390185886986
 40
2.065479772208689
 50
62.45185182430813
 51
117.5481481756674
 73
     1
 97
        4
330
1FD
330
1FA
330
1FC
330
1FB
 92
       16
 93
        4
 72
     2
 10
-82.99108623850535
 20
16.25920804729319
 40
0.5179085730132985
 50
38.12041979716213
 51
141.8795802028554
 73
     1
 72
     2
 10
-82.79134620215933
 20
16.10247686917265
 40
0.7717997786795465
 50
141.8795802028284
 51
218.1204197971623
 73
     1
 72
     2
 10
-82.99108623850535
 20
15.94574569105279
 40
0.51790857301382
 50
218.1204197971898
 51
321.8795802027927
 73
     1
 72
     2
 10
-83.19082627485173
 20
16.10247686917265
 40
0.7717997786795384
 50
321.8795802028428
 51
398.1204197971664
 73
     1
 97
        4
330
1E0
330
1E1
330
1E2
330
1DF
 75
     1
 76
     2
 52
45.0
 41
0.1
 77
     0
 78
     1
 53
45.0
 43
62.7811309658083
 44
-72.3161373035813
 45
-0.1414213562373095
 46
0.0
 79
     0
 98
        1
 10
0.0
 20
0.0
  0
HATCH
  5
24A
330
A3
100
AcDbEntity
  8
1
  6
Continuous
 62
     2
100
AcDbHatch
 10
0.0
 20
0.0
 30
0.0
210
0.0
220
0.0
230
1.0
  2
CUSTOM10
 70
     0
 71
     1
 91
        2
 92
        1
 93
        6
 72
     1
 10
-87.54690098489883
 20
20.98857210725285
 11
-87.54690098489883
 21
17.93476258344177
 72
     1
 10
-87.54690098489883
 20
17.93476258344177
 11
-86.30639657464485
 21
17.93476258344177
 72
     1
 10
-86.30639657464485
 20
17.93476258344177
 11
-86.30639657464485
 21
18.87784082458549
 72
     1
 10
-86.30639657464485
 20
18.87784082458549
 11
-85.54762898686442
 21
18.87784082458549
 72
     2
 10
-85.54762898686442
 20
19.93320646591914
 40
1.055365641333651
 50
270.0
 51
450.0
 73
     1
 72
     1
 10
-85.54762898686442
 20
20.98857210725285
 11
-87.54690098489883
 21
20.98857210725285
 97
        6
330
207
330
192
330
188
330
187
330
194
330
193
 92
       16
 93
        4
 72
     1
 10
-85.98910151310284
 20
20.32546626181286
 11
-86.30639657464485
 21
20.32546626181286
 72
     1
 10
-86.30639657464485
 20
20.32546626181286
 11
-86.30639657464485
 21
19.61973861247057
 72
     1
 10
-86.30639657464485
 20
19.61973861247057
 11
-85.98910151310284
 21
19.61973861247057
 72
     2
 10
-85.98910151310284
 20
19.97260243714166
 40
0.3528638246710898
 50
270.0
 51
450.0
 73
     1
 97
        4
330
195
330
186
330
196
330
1F3
 75
     1
 76
     2
 52
45.0
 41
0.1
 77
     0
 78
     1
 53
45.0
 43
62.7811309658083
 44
-72.3161373035813
 45
-0.1414213562373095
 46
0.0
 79
     0
 98
        1
 10
0.0
 20
0.0
  0
HATCH
  5
24B
330
A3
100
AcDbEntity
  8
1
  6
Continuous
 62
     2
100
AcDbHatch
 10
0.0
 20
0.0
 30
0.0
210
0.0
220
0.0
230
1.0
  2
CUSTOM11
 70
     0
 71
     1
 91
        2
 92
        1
 93
        6
 72
     1
 10
-87.54690098489883
 20
20.98857210725285
 11
-87.54690098489883
 21
17.93476258344177
 72
     1
 10
-87.54690098489883
 20
17.93476258344177
 11
-86.30639657464485
 21
17.93476258344177
 72
     1
 10
-86.30639657464485
 20
17.93476258344177
 11
-86.30639657464485
 21
18.87784082458549
 72
     1
 10
-86.30639657464485
 20
18.87784082458549
 11
-85.54762898686442
 21
18.87784082458549
 72
     2
 10
-85.54762898686442
 20
19.93320646591914
 40
1.055365641333651
 50
270.0
 51
450.0
 73
     1
 72
     1
 10
-85.54762898686442
 20
20.98857210725285
 11
-87.54690098489883
 21
20.98857210725285
 97
        6
330
207
330
192
330
188
330
187
330
194
330
193
 92
       16
 93
        4
 72
     1
 10
-85.98910151310284
 20
20.32546626181286
 11
-86.30639657464485
 21
20.32546626181286
 72
     1
 10
-86.30639657464485
 20
20.32546626181286
 11
-86.30639657464485
 21
19.61973861247057
 72
     1
 10
-86.30639657464485
 20
19.61973861247057
 11
-85.98910151310284
 21
19.61973861247057
 72
     2
 10
-85.98910151310284
 20
19.97260243714166
 40
0.3528638246710898
 50
270.0
 51
450.0
 73
     1
 97
        4
330
195
330
186
330
196
330
1F3
 75
     1
 76
     2
 52
45.0
 41
0.1
 77
     0
 78
     1
 53
45.0
 43
62.7811309658083
 44
-72.3161373035813
 45
-0.1414213562373095
 46
0.0
 79
     0
 98
        1
 10
0.0
 20
0.0
  0
HATCH
  5
24C
330
A3
100
AcDbEntity
  8
1
  6
Continuous
 62
     2
100
AcDbHatch
 10
0.0
 20
0.0
 30
0.0
210
0.0
220
0.0
230
1.0
  2
CUSTOM12
 70
     0
 71
     1
 91
        1
 92
        1
 93
       12
 72
     1
 10
-67.93261779046563
 20
20.98857210725285
 11
-66.52989357271844
 21
20.98857210725285
 72
     1
 10
-66.52989357271844
 20
20.98857210725285
 11
-67.83242320348504
 21
19.51562157721665
 72
     1
 10
-67.83242320348504
 20
19.51562157721665
 11
-66.43447015654473
 21
17.93476258344177
 72
     1
 10
-66.43447015654473
 20
17.93476258344177
 11
-67.83719437429303
 21
17.93476258344177
 72
     1
 10
-67.83719437429303
 20
17.93476258344177
 11
-68.53378531235845
 21
18.72249436873548
 72
     1
 10
-68.53378531235845
 20
18.72249436873548
 11
-69.23037625042423
 21
17.93476258344177
 72
     1
 10
-69.23037625042423
 20
17.93476258344177
 11
-70.63310046817233
 21
17.93476258344177
 72
     1
 10
-70.63310046817233
 20
17.93476258344177
 11
-69.23514742123203
 21
19.51562157721665
 72
     1
 10
-69.23514742123203
 20
19.51562157721665
 11
-70.53767705199954
 21
20.98857210725285
 72
     1
 10
-70.53767705199954
 20
20.98857210725285
 11
-69.13495283425033
 21
20.98857210725285
 72
     1
 10
-69.13495283425033
 20
20.98857210725285
 11
-68.53378531235845
 21
20.30874878569736
 72
     1
 10
-68.53378531235845
 20
20.30874878569736
 11
-67.93261779046563
 21
20.98857210725285
 97
       12
330
161
330
1BA
330
1B9
330
1B8
330
1B7
330
162
330
163
330
15F
330
160
330
1BD
330
1BC
330
1BB
 75
     1
 76
     2
 52
45.0
 41
0.1
 77
     0
 78
     1
 53
45.0
 43
62.7811309658083
 44
-72.3161373035813
 45
-0.1414213562373095
 46
0.0
 79
     0
 98
        1
 10
0.0
 20
0.0
  0
HATCH
  5
24D
330
A3
100
AcDbEntity
  8
1
  6
Continuous
 62
     2
100
AcDbHatch
 10
0.0
 20
0.0
 30
0.0
210
0.0
220
0.0
230
1.0
  2
CUSTOM13
 70
     0
 71
     1
 91
        1
 92
        1
 93
       12
 72
     1
 10
-67.93261779046563
 20
20.98857210725285
 11
-66.52989357271844
 21
20.98857210725285
 72
     1
 10
-66.52989357271844
 20
20.98857210725285
 11
-67.83242320348504
 21
19.51562157721665
 72
     1
 10
-67.83242320348504
 20
19.51562157721665
 11
-66.43447015654473
 21
17.93476258344177
 72
     1
 10
-66.43447015654473
 20
17.93476258344177
 11
-67.83719437429303
 21
17.93476258344177
 72
     1
 10
-67.83719437429303
 20
17.93476258344177
 11
-68.53378531235845
 21
18.72249436873548
 72
     1
 10
-68.53378531235845
 20
18.72249436873548
 11
-69.23037625042423
 21
17.93476258344177
 72
     1
 10
-69.23037625042423
 20
17.93476258344177
 11
-70.63310046817233
 21
17.93476258344177
 72
     1
 10
-70.63310046817233
 20
17.93476258344177
 11
-69.23514742123203
 21
19.51562157721665
 72
     1
 10
-69.23514742123203
 20
19.51562157721665
 11
-70.53767705199954
 21
20.98857210725285
 72
     1
 10
-70.53767705199954
 20
20.98857210725285
 11
-69.13495283425033
 21
20.98857210725285
 72
     1
 10
-69.13495283425033
 20
20.98857210725285
 11
-68.53378531235845
 21
20.30874878569736
 72
     1
 10
-68.53378531235845
 20
20.30874878569736
 11
-67.93261779046563
 21
20.98857210725285
 97
       12
330
161
330
1BA
330
1B9
330
1B8
330
1B7
330
162
330
163
330
15F
330
160
330
1BD
330
1BC
330
1BB
 75
     1
 76
     2
 52
45.0
 41
0.1
 77
     0
 78
     1
 53
45.0
 43
62.7811309658083
 44
-72.3161373035813
 45
-0.1414213562373095
 46
0.0
 79
     0
 98
        1
 10
0.0
 20
0.0
  0
HATCH
  5
24E
330
A3
100
AcDbEntity
  8
1
  6
Continuous
 62
     2
100
AcDbHatch
 10
0.0
 20
0.0
 30
0.0
210
0.0
220
0.0
230
1.0
  2
CUSTOM14
 70
     0
 71
     1
 91
        1
 92
        1
 93
        4
 72
     1
 10
-70.75237973838924
 20
20.98857210725285
 11
-70.75237973838924
 21
17.93476258344177
 72
     1
 10
-70.75237973838924
 20
17.93476258344177
 11
-71.99288414864213
 21
17.93476258344177
 72
     1
 10
-71.99288414864213
 20
17.93476258344177
 11
-71.99288414864213
 21
20.98857210725285
 72
     1
 10
-71.99288414864213
 20
20.98857210725285
 11
-70.75237973838924
 21
20.98857210725285
 97
        4
330
1B5
330
164
330
1B4
330
1B6
 75
     1
 76
     2
 52
45.0
 41
0.1
 77
     0
 78
     1
 53
45.0
 43
62.7811309658083
 44
-72.3161373035813
 45
-0.1414213562373095
 46
0.0
 79
     0
 98
        1
 10
0.0
 20
0.0
  0
HATCH
  5
24F
330
A3
100
AcDbEntity
  8
1
  6
Continuous
 62
     2
100
AcDbHatch
 10
0.0
 20
0.0
 30
0.0
210
0.0
220
0.0
230
1.0
  2
CUSTOM15
 70
     0
 71
     1
 91
        1
 92
        1
 93
        4
 72
     1
 10
-70.75237973838924
 20
20.98857210725285
 11
-70.75237973838924
 21
17.93476258344177
 72
     1
 10
-70.75237973838924
 20
17.93476258344177
 11
-71.99288414864213
 21
17.93476258344177
 72
     1
 10
-71.99288414864213
 20
17.93476258344177
 11
-71.99288414864213
 21
20.98857210725285
 72
     1
 10
-71.99288414864213
 20
20.98857210725285
 11
-70.75237973838924
 21
20.98857210725285
 97
        4
330
1B5
330
164
330
1B4
330
1B6
 75
     1
 76
     2
 52
45.0
 41
0.1
 77
     0
 78
     1
 53
45.0
 43
62.7811309658083
 44
-72.3161373035813
 45
-0.1414213562373095
 46
0.0
 79
     0
 98
        1
 10
0.0
 20
0.0
  0
HATCH
  5
250
330
A3
100
AcDbEntity
  8
1
  6
Continuous
 62
     2
100
AcDbHatch
 10
0.0
 20
0.0
 30
0.0
210
0.0
220
0.0
230
1.0
  2
CUSTOM16
 70
     0
 71
     1
 91
        2
 92
        1
 93
        8
 72
     1
 10
-71.14282374192123
 20
14.57557210726745
 11
-72.38332815217512
 21
14.57557210726745
 72
     1
 10
-72.38332815217512
 20
14.57557210726745
 11
-72.59480820565093
 21
15.11653265148524
 72
     1
 10
-72.59480820565093
 20
15.11653265148524
 11
-73.72724978232483
 21
15.11653265148524
 72
     1
 10
-73.72724978232483
 20
15.11653265148524
 11
-73.93872983580064
 21
14.57557210726745
 72
     1
 10
-73.93872983580064
 20
14.57557210726745
 11
-75.17923424605354
 21
14.57557210726745
 72
     1
 10
-75.17923424605354
 20
14.57557210726745
 11
-73.78128119911435
 21
17.62938163107859
 72
     1
 10
-73.78128119911435
 20
17.62938163107859
 11
-72.54077678886154
 21
17.62938163107859
 72
     1
 10
-72.54077678886154
 20
17.62938163107859
 11
-71.14282374192123
 21
14.57557210726745
 97
        8
330
1B0
330
16A
330
1AF
330
1B2
330
167
330
1B1
330
168
330
169
 92
       16
 93
        3
 72
     1
 10
-73.46119423117975
 20
15.79709591679185
 11
-72.86086375679724
 21
15.79709591679185
 72
     1
 10
-72.86086375679724
 20
15.79709591679185
 11
-73.16102899398743
 21
16.56491088277855
 72
     1
 10
-73.16102899398743
 20
16.56491088277855
 11
-73.46119423117975
 21
15.79709591679185
 97
        3
330
166
330
165
330
1B3
 75
     1
 76
     2
 52
45.0
 41
0.1
 77
     0
 78
     1
 53
45.0
 43
62.7811309658083
 44
-72.3161373035813
 45
-0.1414213562373095
 46
0.0
 79
     0
 98
        1
 10
0.0
 20
0.0
  0
HATCH
  5
251
330
A3
100
AcDbEntity
  8
1
  6
Continuous
 62
     2
100
AcDbHatch
 10
0.0
 20
0.0
 30
0.0
210
0.0
220
0.0
230
1.0
  2
CUSTOM17
 70
     0
 71
     1
 91
        2
 92
        1
 93
        8
 72
     1
 10
-71.14282374192123
 20
14.57557210726745
 11
-72.38332815217512
 21
14.57557210726745
 72
     1
 10
-72.38332815217512
 20
14.57557210726745
 11
-72.59480820565093
 21
15.11653265148524
 72
     1
 10
-72.59480820565093
 20
15.11653265148524
 11
-73.72724978232483
 21
15.11653265148524
 72
     1
 10
-73.72724978232483
 20
15.11653265148524
 11
-73.93872983580064
 21
14.57557210726745
 72
     1
 10
-73.93872983580064
 20
14.57557210726745
 11
-75.17923424605354
 21
14.57557210726745
 72
     1
 10
-75.17923424605354
 20
14.57557210726745
 11
-73.78128119911435
 21
17.62938163107859
 72
     1
 10
-73.78128119911435
 20
17.62938163107859
 11
-72.54077678886154
 21
17.62938163107859
 72
     1
 10
-72.54077678886154
 20
17.62938163107859
 11
-71.14282374192123
 21
14.57557210726745
 97
        8
330
1B0
330
16A
330
1AF
330
1B2
330
167
330
1B1
330
168
330
169
 92
       16
 93
        3
 72
     1
 10
-73.46119423117975
 20
15.79709591679185
 11
-72.86086375679724
 21
15.79709591679185
 72
     1
 10
-72.86086375679724
 20
15.79709591679185
 11
-73.16102899398743
 21
16.56491088277855
 72
     1
 10
-73.16102899398743
 20
16.56491088277855
 11
-73.46119423117975
 21
15.79709591679185
 97
        3
330
166
330
165
330
1B3
 75
     1
 76
     2
 52
45.0
 41
0.1
 77
     0
 78
     1
 53
45.0
 43
62.7811309658083
 44
-72.3161373035813
 45
-0.1414213562373095
 46
0.0
 79
     0
 98
        1
 10
0.0
 20
0.0
  0
HATCH
  5
252
330
A3
100
AcDbEntity
  8
1
  6
Continuous
 62
     2
100
AcDbHatch
 10
0.0
 20
0.0
 30
0.0
210
0.0
220
0.0
230
1.0
  2
CUSTOM18
 70
     0
 71
     1
 91
        1
 92
        1
 93
        8
 72
     1
 10
-77.33674638523584
 20
17.62938163107859
 11
-77.33674638523584
 21
16.84411632495485
 72
     1
 10
-77.33674638523584
 20
16.84411632495485
 11
-76.52564734776115
 21
16.84411632495485
 72
     1
 10
-76.52564734776115
 20
16.84411632495485
 11
-76.52564734776115
 21
14.57557210726745
 72
     1
 10
-76.52564734776115
 20
14.57557210726745
 11
-75.33285464559475
 21
14.57557210726745
 72
     1
 10
-75.33285464559475
 20
14.57557210726745
 11
-75.33285464559475
 21
16.84411632495485
 72
     1
 10
-75.33285464559475
 20
16.84411632495485
 11
-74.52175560812213
 21
16.84411632495485
 72
     1
 10
-74.52175560812213
 20
16.84411632495485
 11
-74.52175560812213
 21
17.62938163107859
 72
     1
 10
-74.52175560812213
 20
17.62938163107859
 11
-77.33674638523584
 21
17.62938163107859
 97
        8
330
1AC
330
1AB
330
1AA
330
16B
330
16C
330
1AE
330
16D
330
1AD
 75
     1
 76
     2
 52
45.0
 41
0.1
 77
     0
 78
     1
 53
45.0
 43
62.7811309658083
 44
-72.3161373035813
 45
-0.1414213562373095
 46
0.0
 79
     0
 98
        1
 10
0.0
 20
0.0
  0
HATCH
  5
253
330
A3
100
AcDbEntity
  8
1
  6
Continuous
 62
     2
100
AcDbHatch
 10
0.0
 20
0.0
 30
0.0
210
0.0
220
0.0
230
1.0
  2
CUSTOM19
 70
     0
 71
     1
 91
        1
 92
        1
 93
        8
 72
     1
 10
-77.33674638523584
 20
17.62938163107859
 11
-77.33674638523584
 21
16.84411632495485
 72
     1
 10
-77.33674638523584
 20
16.84411632495485
 11
-76.52564734776115
 21
16.84411632495485
 72
     1
 10
-76.52564734776115
 20
16.84411632495485
 11
-76.52564734776115
 21
14.57557210726745
 72
     1
 10
-76.52564734776115
 20
14.57557210726745
 11
-75.33285464559475
 21
14.57557210726745
 72
     1
 10
-75.33285464559475
 20
14.57557210726745
 11
-75.33285464559475
 21
16.84411632495485
 72
     1
 10
-75.33285464559475
 20
16.84411632495485
 11
-74.52175560812213
 21
16.84411632495485
 72
     1
 10
-74.52175560812213
 20
16.84411632495485
 11
-74.52175560812213
 21
17.62938163107859
 72
     1
 10
-74.52175560812213
 20
17.62938163107859
 11
-77.33674638523584
 21
17.62938163107859
 97
        8
330
1AC
330
1AB
330
1AA
330
16B
330
16C
330
1AE
330
16D
330
1AD
 75
     1
 76
     2
 52
45.0
 41
0.1
 77
     0
 78
     1
 53
45.0
 43
62.7811309658083
 44
-72.3161373035813
 45
-0.1414213562373095
 46
0.0
 79
     0
 98
        1
 10
0.0
 20
0.0
  0
HATCH
  5
254
330
A3
100
AcDbEntity
  8
1
  6
Continuous
 62
     2
100
AcDbHatch
 10
0.0
 20
0.0
 30
0.0
210
0.0
220
0.0
230
1.0
  2
CUSTOM20
 70
     0
 71
     1
 91
        1
 92
        1
 93
       10
 72
     1
 10
-74.66473980149675
 20
20.98857210725285
 11
-75.85753250366315
 21
20.98857210725285
 72
     1
 10
-75.85753250366315
 20
20.98857210725285
 11
-75.85753250366315
 21
17.93476258344177
 72
     1
 10
-75.85753250366315
 20
17.93476258344177
 11
-74.66473980149675
 21
17.93476258344177
 72
     1
 10
-74.66473980149675
 20
17.93476258344177
 11
-74.66473980149675
 21
19.24353809364649
 72
     1
 10
-74.66473980149675
 20
19.24353809364649
 11
-73.42423539124263
 21
17.93476258344177
 72
     1
 10
-73.42423539124263
 20
17.93476258344177
 11
-72.23144268907603
 21
17.93476258344177
 72
     1
 10
-72.23144268907603
 20
17.93476258344177
 11
-72.23144268907603
 21
20.98857210725285
 72
     1
 10
-72.23144268907603
 20
20.98857210725285
 11
-73.42423539124263
 21
20.98857210725285
 72
     1
 10
-73.42423539124263
 20
20.98857210725285
 11
-73.42423539124263
 21
19.67979659704778
 72
     1
 10
-73.42423539124263
 20
19.67979659704778
 11
-74.66473980149675
 21
20.98857210725285
 97
       10
330
1A6
330
170
330
171
330
172
330
173
330
1A9
330
16E
330
1A8
330
1A7
330
16F
 75
     1
 76
     2
 52
45.0
 41
0.1
 77
     0
 78
     1
 53
45.0
 43
62.7811309658083
 44
-72.3161373035813
 45
-0.1414213562373095
 46
0.0
 79
     0
 98
        1
 10
0.0
 20
0.0
  0
HATCH
  5
255
330
A3
100
AcDbEntity
  8
1
  6
Continuous
 62
     2
100
AcDbHatch
 10
0.0
 20
0.0
 30
0.0
210
0.0
220
0.0
230
1.0
  2
CUSTOM21
 70
     0
 71
     1
 91
        1
 92
        1
 93
       10
 72
     1
 10
-74.66473980149675
 20
20.98857210725285
 11
-75.85753250366315
 21
20.98857210725285
 72
     1
 10
-75.85753250366315
 20
20.98857210725285
 11
-75.85753250366315
 21
17.93476258344177
 72
     1
 10
-75.85753250366315
 20
17.93476258344177
 11
-74.66473980149675
 21
17.93476258344177
 72
     1
 10
-74.66473980149675
 20
17.93476258344177
 11
-74.66473980149675
 21
19.24353809364649
 72
     1
 10
-74.66473980149675
 20
19.24353809364649
 11
-73.42423539124263
 21
17.93476258344177
 72
     1
 10
-73.42423539124263
 20
17.93476258344177
 11
-72.23144268907603
 21
17.93476258344177
 72
     1
 10
-72.23144268907603
 20
17.93476258344177
 11
-72.23144268907603
 21
20.98857210725285
 72
     1
 10
-72.23144268907603
 20
20.98857210725285
 11
-73.42423539124263
 21
20.98857210725285
 72
     1
 10
-73.42423539124263
 20
20.98857210725285
 11
-73.42423539124263
 21
19.67979659704778
 72
     1
 10
-73.42423539124263
 20
19.67979659704778
 11
-74.66473980149675
 21
20.98857210725285
 97
       10
330
1A6
330
170
330
171
330
172
330
173
330
1A9
330
16E
330
1A8
330
1A7
330
16F
 75
     1
 76
     2
 52
45.0
 41
0.1
 77
     0
 78
     1
 53
45.0
 43
62.7811309658083
 44
-72.3161373035813
 45
-0.1414213562373095
 46
0.0
 79
     0
 98
        1
 10
0.0
 20
0.0
  0
HATCH
  5
256
330
A3
100
AcDbEntity
  8
1
  6
Continuous
 62
     2
100
AcDbHatch
 10
0.0
 20
0.0
 30
0.0
210
0.0
220
0.0
230
1.0
  2
CUSTOM22
 70
     0
 71
     1
 91
        1
 92
        1
 93
       10
 72
     1
 10
-79.91317862191534
 20
17.62938163107859
 11
-81.10597132408284
 21
17.62938163107859
 72
     1
 10
-81.10597132408284
 20
17.62938163107859
 11
-81.10597132408284
 21
14.57557210726745
 72
     1
 10
-81.10597132408284
 20
14.57557210726745
 11
-79.91317862191534
 21
14.57557210726745
 72
     1
 10
-79.91317862191534
 20
14.57557210726745
 11
-79.91317862191534
 21
15.88434761747195
 72
     1
 10
-79.91317862191534
 20
15.88434761747195
 11
-78.67267421166233
 21
14.57557210726745
 72
     1
 10
-78.67267421166233
 20
14.57557210726745
 11
-77.47988150949593
 21
14.57557210726745
 72
     1
 10
-77.47988150949593
 20
14.57557210726745
 11
-77.47988150949593
 21
17.62938163107859
 72
     1
 10
-77.47988150949593
 20
17.62938163107859
 11
-78.67267421166233
 21
17.62938163107859
 72
     1
 10
-78.67267421166233
 20
17.62938163107859
 11
-78.67267421166233
 21
16.32060612087335
 72
     1
 10
-78.67267421166233
 20
16.32060612087335
 11
-79.91317862191534
 21
17.62938163107859
 97
       10
330
175
330
176
330
177
330
1A3
330
178
330
179
330
1A2
330
1A5
330
1A4
330
174
 75
     1
 76
     2
 52
45.0
 41
0.1
 77
     0
 78
     1
 53
45.0
 43
62.7811309658083
 44
-72.3161373035813
 45
-0.1414213562373095
 46
0.0
 79
     0
 98
        1
 10
0.0
 20
0.0
  0
HATCH
  5
257
330
A3
100
AcDbEntity
  8
1
  6
Continuous
 62
     2
100
AcDbHatch
 10
0.0
 20
0.0
 30
0.0
210
0.0
220
0.0
230
1.0
  2
CUSTOM23
 70
     0
 71
     1
 91
        1
 92
        1
 93
       10
 72
     1
 10
-79.91317862191534
 20
17.62938163107859
 11
-81.10597132408284
 21
17.62938163107859
 72
     1
 10
-81.10597132408284
 20
17.62938163107859
 11
-81.10597132408284
 21
14.57557210726745
 72
     1
 10
-81.10597132408284
 20
14.57557210726745
 11
-79.91317862191534
 21
14.57557210726745
 72
     1
 10
-79.91317862191534
 20
14.57557210726745
 11
-79.91317862191534
 21
15.88434761747195
 72
     1
 10
-79.91317862191534
 20
15.88434761747195
 11
-78.67267421166233
 21
14.57557210726745
 72
     1
 10
-78.67267421166233
 20
14.57557210726745
 11
-77.47988150949593
 21
14.57557210726745
 72
     1
 10
-77.47988150949593
 20
14.57557210726745
 11
-77.47988150949593
 21
17.62938163107859
 72
     1
 10
-77.47988150949593
 20
17.62938163107859
 11
-78.67267421166233
 21
17.62938163107859
 72
     1
 10
-78.67267421166233
 20
17.62938163107859
 11
-78.67267421166233
 21
16.32060612087335
 72
     1
 10
-78.67267421166233
 20
16.32060612087335
 11
-79.91317862191534
 21
17.62938163107859
 97
       10
330
175
330
176
330
177
330
1A3
330
178
330
179
330
1A2
330
1A5
330
1A4
330
174
 75
     1
 76
     2
 52
45.0
 41
0.1
 77
     0
 78
     1
 53
45.0
 43
62.7811309658083
 44
-72.3161373035813
 45
-0.1414213562373095
 46
0.0
 79
     0
 98
        1
 10
0.0
 20
0.0
  0
HATCH
  5
258
330
A3
100
AcDbEntity
  8
1
  6
Continuous
 62
     2
100
AcDbHatch
 10
0.0
 20
0.0
 30
0.0
210
0.0
220
0.0
230
1.0
  2
CUSTOM24
 70
     0
 71
     1
 91
        1
 92
        1
 93
       12
 72
     1
 10
-80.91497356085063
 20
20.98857210725285
 11
-80.91497356085063
 21
17.93476258344177
 72
     1
 10
-80.91497356085063
 20
17.93476258344177
 11
-82.10776626301714
 21
17.93476258344177
 72
     1
 10
-82.10776626301714
 20
17.93476258344177
 11
-82.10776626301714
 21
19.06903469228544
 72
     1
 10
-82.10776626301714
 20
19.06903469228544
 11
-83.15742384092454
 21
19.06903469228544
 72
     1
 10
-83.15742384092454
 20
19.06903469228544
 11
-83.15742384092454
 21
17.93476258344177
 72
     1
 10
-83.15742384092454
 20
17.93476258344177
 11
-84.35021654309114
 21
17.93476258344177
 72
     1
 10
-84.35021654309114
 20
17.93476258344177
 11
-84.35021654309114
 21
20.98857210725285
 72
     1
 10
-84.35021654309114
 20
20.98857210725285
 11
-83.15742384092454
 21
20.98857210725285
 72
     1
 10
-83.15742384092454
 20
20.98857210725285
 11
-83.15742384092454
 21
19.91973877391828
 72
     1
 10
-83.15742384092454
 20
19.91973877391828
 11
-82.10776626301714
 21
19.91973877391828
 72
     1
 10
-82.10776626301714
 20
19.91973877391828
 11
-82.10776626301714
 21
20.98857210725285
 72
     1
 10
-82.10776626301714
 20
20.98857210725285
 11
-80.91497356085063
 21
20.98857210725285
 97
       12
330
19D
330
19C
330
19B
330
183
330
184
330
19A
330
185
330
199
330
198
330
197
330
181
330
182
 75
     1
 76
     2
 52
45.0
 41
0.1
 77
     0
 78
     1
 53
45.0
 43
62.7811309658083
 44
-72.3161373035813
 45
-0.1414213562373095
 46
0.0
 79
     0
 98
        1
 10
0.0
 20
0.0
  0
HATCH
  5
259
330
A3
100
AcDbEntity
  8
1
  6
Continuous
 62
     2
100
AcDbHatch
 10
0.0
 20
0.0
 30
0.0
210
0.0
220
0.0
230
1.0
  2
CUSTOM25
 70
     0
 71
     1
 91
        1
 92
        1
 93
       12
 72
     1
 10
-80.91497356085063
 20
20.98857210725285
 11
-80.91497356085063
 21
17.93476258344177
 72
     1
 10
-80.91497356085063
 20
17.93476258344177
 11
-82.10776626301714
 21
17.93476258344177
 72
     1
 10
-82.10776626301714
 20
17.93476258344177
 11
-82.10776626301714
 21
19.06903469228544
 72
     1
 10
-82.10776626301714
 20
19.06903469228544
 11
-83.15742384092454
 21
19.06903469228544
 72
     1
 10
-83.15742384092454
 20
19.06903469228544
 11
-83.15742384092454
 21
17.93476258344177
 72
     1
 10
-83.15742384092454
 20
17.93476258344177
 11
-84.35021654309114
 21
17.93476258344177
 72
     1
 10
-84.35021654309114
 20
17.93476258344177
 11
-84.35021654309114
 21
20.98857210725285
 72
     1
 10
-84.35021654309114
 20
20.98857210725285
 11
-83.15742384092454
 21
20.98857210725285
 72
     1
 10
-83.15742384092454
 20
20.98857210725285
 11
-83.15742384092454
 21
19.91973877391828
 72
     1
 10
-83.15742384092454
 20
19.91973877391828
 11
-82.10776626301714
 21
19.91973877391828
 72
     1
 10
-82.10776626301714
 20
19.91973877391828
 11
-82.10776626301714
 21
20.98857210725285
 72
     1
 10
-82.10776626301714
 20
20.98857210725285
 11
-80.91497356085063
 21
20.98857210725285
 97
       12
330
19D
330
19C
330
19B
330
183
330
184
330
19A
330
185
330
199
330
198
330
197
330
181
330
182
 75
     1
 76
     2
 52
45.0
 41
0.1
 77
     0
 78
     1
 53
45.0
 43
62.7811309658083
 44
-72.3161373035813
 45
-0.1414213562373095
 46
0.0
 79
     0
 98
        1
 10
0.0
 20
0.0
  0
ENDBLK
  5
A5
330
A3
100
AcDbEntity
  8
0
100
AcDbBlockEnd
  0
BLOCK
  5
A9
330
A6
100
AcDbEntity
  8
0
100
AcDbBlockBegin
  2
A4I_td_st
 70
     0
 10
47.9623302529381
 20
2.28207210725108
 30
0.0
  3
A4I_td_st
  1

  0
INSERT
  5
A7
330
A6
100
AcDbEntity
  8
1
100
AcDbBlockReference
  2
_punkt
 10
47.9623302529381
 20
7.28207210725119
 30
0.0
  0
INSERT
  5
A8
330
A6
100
AcDbEntity
  8
1
100
AcDbBlockReference
  2
_rahmen
 10
47.9623302529381
 20
2.28207210725108
 30
0.0
  0
ENDBLK
  5
AA
330
A6
100
AcDbEntity
  8
0
100
AcDbBlockEnd
  0
BLOCK
  5
B3
330
AB
100
AcDbEntity
  8
0
100
AcDbBlockBegin
  2
1
 70
     0
 10
0.0
 20
0.0
 30
0.0
  3
1
  1

  0
INSERT
  5
AC
330
AB
100
AcDbEntity
  8
0
100
AcDbBlockReference
  2
Back1
 10
-13.84999839652801
 20
153.0000000000099
 30
0.0
 41
2.0
 42
2.0
 43
2.0
  0
INSERT
  5
AD
330
AB
100
AcDbEntity
  8
0
100
AcDbBlockReference
  2
Front1
 10
-123.1500016034721
 20
153.00000000001
 30
0.0
 41
2.0
 42
2.0
 43
2.0
  0
INSERT
  5
AE
330
AB
100
AcDbEntity
  8
0
100
AcDbBlockReference
  2
Gen1
 10
-13.00000000001018
 20
81.0
 30
0.0
 41
2.0
 42
2.0
 43
2.0
  0
INSERT
  5
AF
330
AB
100
AcDbEntity
  8
0
100
AcDbBlockReference
  2
Left1
 10
-61.99999999998
 20
153.0000000000099
 30
0.0
 41
2.0
 42
2.0
 43
2.0
  0
INSERT
  5
B0
330
AB
100
AcDbEntity
  8
0
100
AcDbBlockReference
  2
Right1
 10
-182.3000032069638
 20
153.00000000001
 30
0.0
 41
2.0
 42
2.0
 43
2.0
  0
INSERT
  5
B1
330
AB
100
AcDbEntity
  8
0
100
AcDbBlockReference
  2
Top1
 10
-123.1500016034721
 20
112.3999984468164
 30
0.0
 41
2.0
 42
2.0
 43
2.0
  0
INSERT
  5
B2
330
AB
100
AcDbEntity
  8
0
100
AcDbBlockReference
  2
A4I_td_st
 10
47.9623302529381
 20
2.28207210725108
 30
0.0
  0
ENDBLK
  5
B4
330
AB
100
AcDbEntity
  8
0
100
AcDbBlockEnd
  0
BLOCK
  5
CE
330
C4
100
AcDbEntity
  8
0
100
AcDbBlockBegin
  2
*D17
 70
     1
 10
0.0
 20
0.0
 30
0.0
  3
*D17
  1

  0
LINE
  5
C5
330
C4
100
AcDbEntity
  8
1
  6
Continuous
 62
     2
100
AcDbLine
 10
-74.49832843563108
 20
83.8537710835285
 30
0.0
 11
-74.49832843563108
 21
77.22500001411375
 31
0.0
  0
LINE
  5
C6
330
C4
100
AcDbEntity
  8
1
  6
Continuous
 62
     2
100
AcDbLine
 10
-74.49832843563108
 20
77.22500001411375
 30
0.0
 11
-74.49832843563108
 21
75.77500001425341
 31
0.0
  0
LINE
  5
C7
330
C4
100
AcDbEntity
  8
1
  6
Continuous
 62
     2
100
AcDbLine
 10
-74.49832843563108
 20
75.77500001425341
 30
0.0
 11
-74.49832843563108
 21
72.27500001425341
 31
0.0
  0
LINE
  5
C8
330
C4
100
AcDbEntity
  8
1
  6
Continuous
 62
     2
100
AcDbLine
 10
-70.82499822007438
 20
77.22500001411375
 30
0.0
 11
-75.24832843563108
 21
77.22500001411375
 31
0.0
  0
LINE
  5
C9
330
C4
100
AcDbEntity
  8
1
  6
Continuous
 62
     2
100
AcDbLine
 10
-70.52499822817641
 20
75.77500001425341
 30
0.0
 11
-75.24832843563108
 21
75.77500001425341
 31
0.0
  0
SOLID
  5
CA
330
C4
100
AcDbEntity
  8
1
 62
     2
100
AcDbTrace
 10
-74.72872030640902
 20
78.97500001411375
 30
0.0
 11
-74.26793656485314
 21
78.97500001411375
 31
0.0
 12
-74.49832843563108
 22
77.22500001411375
 32
0.0
 13
-74.49832843563108
 23
77.22500001411375
 33
0.0
  0
SOLID
  5
CB
330
C4
100
AcDbEntity
  8
1
 62
     2
100
AcDbTrace
 10
-74.26793656485314
 20
74.02500001425341
 30
0.0
 11
-74.72872030640902
 21
74.02500001425341
 31
0.0
 12
-74.49832843563108
 22
75.77500001425341
 32
0.0
 13
-74.49832843563108
 23
75.77500001425341
 33
0.0
  0
MTEXT
  5
CD
330
C4
100
AcDbEntity
  8
1
 62
     3
100
AcDbMText
 10
-75.67332843563109
 20
79.5662710835285
 30
0.0
 40
1.75
 41
0.0
 71
     7
 72
     1
  1
1,45
  7
CONVERTER_11
 11
0.0
 21
1.0
 31
0.0
 73
     1
 44
0.60024009603842
  0
ENDBLK
  5
CF
330
C4
100
AcDbEntity
  8
0
100
AcDbBlockEnd
  0
BLOCK
  5
D9
330
D2
100
AcDbEntity
  8
0
100
AcDbBlockBegin
  2
*D18
 70
     1
 10
0.0
 20
0.0
 30
0.0
  3
*D18
  1

  0
LINE
  5
D3
330
D2
100
AcDbEntity
  8
1
  6
Continuous
 62
     2
100
AcDbLine
 10
-70.57499822145829
 20
81.13606867383822
 30
0.0
 11
-52.57499822146409
 21
81.13606868020746
 31
0.0
  0
LINE
  5
D4
330
D2
100
AcDbEntity
  8
1
  6
Continuous
 62
     2
100
AcDbLine
 10
-70.57499822016284
 20
77.47500001411375
 30
0.0
 11
-70.57499822172367
 21
81.88606867383822
 31
0.0
  0
LINE
  5
D5
330
D2
100
AcDbEntity
  8
1
  6
Continuous
 62
     2
100
AcDbLine
 10
-52.57499822016863
 20
77.47500002048298
 30
0.0
 11
-52.57499822172947
 21
81.88606868020746
 31
0.0
  0
SOLID
  5
D6
330
D2
100
AcDbEntity
  8
1
 62
     2
100
AcDbTrace
 10
-68.82499822153981
 20
81.3664605452354
 30
0.0
 11
-68.82499822137676
 21
80.90567680367953
 31
0.0
 12
-70.57499822145829
 22
81.13606867383822
 32
0.0
 13
-70.57499822145829
 23
81.13606867383822
 33
0.0
  0
SOLID
  5
D7
330
D2
100
AcDbEntity
  8
1
 62
     2
100
AcDbTrace
 10
-54.32499822138256
 20
80.90567680881028
 30
0.0
 11
-54.32499822154561
 21
81.36646055036616
 31
0.0
 12
-52.57499822146409
 22
81.13606868020746
 32
0.0
 13
-52.57499822146409
 23
81.13606868020746
 33
0.0
  0
MTEXT
  5
D8
330
D2
100
AcDbEntity
  8
1
 62
     3
100
AcDbMText
 10
-62.70226661403105
 20
82.1360686769955
 30
0.0
 40
1.75
 41
0.0
 71
     7
 72
     1
  1
18
  7
CONVERTER_11
 11
0.9999999999970619
 21
2.424068405545306E-6
 31
0.0
 73
     1
 44
0.60024009603842
  0
ENDBLK
  5
DA
330
D2
100
AcDbEntity
  8
0
100
AcDbBlockEnd
  0
BLOCK
  5
FD
330
F4
100
AcDbEntity
  8
0
100
AcDbBlockBegin
  2
*D19
 70
     1
 10
0.0
 20
0.0
 30
0.0
  3
*D19
  1

  0
LINE
  5
F5
330
F4
100
AcDbEntity
  8
1
  6
Continuous
 62
     2
100
AcDbLine
 10
-37.3684004458228
 20
83.96726274524747
 30
0.0
 11
-37.3684004458228
 21
77.22500001411372
 31
0.0
  0
LINE
  5
F6
330
F4
100
AcDbEntity
  8
1
  6
Continuous
 62
     2
100
AcDbLine
 10
-37.3684004458228
 20
77.22500001411372
 30
0.0
 11
-37.3684004458228
 21
76.07500001414661
 31
0.0
  0
LINE
  5
F7
330
F4
100
AcDbEntity
  8
1
  6
Continuous
 62
     2
100
AcDbLine
 10
-37.3684004458228
 20
76.07500001414661
 30
0.0
 11
-37.3684004458228
 21
72.57500001414661
 31
0.0
  0
LINE
  5
F8
330
F4
100
AcDbEntity
  8
1
  6
Continuous
 62
     2
100
AcDbLine
 10
-33.3250000116258
 20
77.22500001411372
 30
0.0
 11
-38.1184004458228
 21
77.22500001411372
 31
0.0
  0
LINE
  5
F9
330
F4
100
AcDbEntity
  8
1
  6
Continuous
 62
     2
100
AcDbLine
 10
-33.32500001162581
 20
76.07500001414661
 30
0.0
 11
-38.1184004458228
 21
76.07500001414661
 31
0.0
  0
SOLID
  5
FA
330
F4
100
AcDbEntity
  8
1
 62
     2
100
AcDbTrace
 10
-37.59879231660074
 20
78.97500001411372
 30
0.0
 11
-37.13800857504486
 21
78.97500001411372
 31
0.0
 12
-37.3684004458228
 22
77.22500001411372
 32
0.0
 13
-37.3684004458228
 23
77.22500001411372
 33
0.0
  0
SOLID
  5
FB
330
F4
100
AcDbEntity
  8
1
 62
     2
100
AcDbTrace
 10
-37.13800857504486
 20
74.32500001414661
 30
0.0
 11
-37.59879231660074
 21
74.32500001414661
 31
0.0
 12
-37.3684004458228
 22
76.07500001414661
 32
0.0
 13
-37.3684004458228
 23
76.07500001414661
 33
0.0
  0
MTEXT
  5
FC
330
F4
100
AcDbEntity
  8
1
 62
     3
100
AcDbMText
 10
-38.5434004458228
 20
80.20476274524748
 30
0.0
 40
1.75
 41
0.0
 71
     7
 72
     1
  1
1,15
  7
CONVERTER_11
 11
0.0
 21
1.0
 31
0.0
 73
     1
 44
0.60024009603842
  0
ENDBLK
  5
FE
330
F4
100
AcDbEntity
  8
0
100
AcDbBlockEnd
  0
BLOCK
  5
11C
330
113
100
AcDbEntity
  8
0
100
AcDbBlockBegin
  2
*D20
 70
     1
 10
0.0
 20
0.0
 30
0.0
  3
*D20
  1

  0
LINE
  5
114
330
113
100
AcDbEntity
  8
1
  6
Continuous
 62
     2
100
AcDbLine
 10
-74.49832843563108
 20
65.599037235524
 30
0.0
 11
-74.49832843563108
 21
58.27499923504402
 31
0.0
  0
LINE
  5
115
330
113
100
AcDbEntity
  8
1
  6
Continuous
 62
     2
100
AcDbLine
 10
-74.49832843563108
 20
58.27499923504402
 30
0.0
 11
-74.49832843563108
 21
54.12499923504692
 31
0.0
  0
LINE
  5
116
330
113
100
AcDbEntity
  8
1
  6
Continuous
 62
     2
100
AcDbLine
 10
-74.49832843563108
 20
54.12499923504692
 30
0.0
 11
-74.49832843563108
 21
50.62499923504692
 31
0.0
  0
LINE
  5
117
330
113
100
AcDbEntity
  8
1
  6
Continuous
 62
     2
100
AcDbLine
 10
-70.82499823451613
 20
58.27499923504402
 30
0.0
 11
-75.24832843563108
 21
58.27499923504402
 31
0.0
  0
LINE
  5
118
330
113
100
AcDbEntity
  8
1
  6
Continuous
 62
     2
100
AcDbLine
 10
-70.82499822007438
 20
54.12499923504692
 30
0.0
 11
-75.24832843563108
 21
54.12499923504692
 31
0.0
  0
SOLID
  5
119
330
113
100
AcDbEntity
  8
1
 62
     2
100
AcDbTrace
 10
-74.72872030640902
 20
60.02499923504402
 30
0.0
 11
-74.26793656485314
 21
60.02499923504402
 31
0.0
 12
-74.49832843563108
 22
58.27499923504402
 32
0.0
 13
-74.49832843563108
 23
58.27499923504402
 33
0.0
  0
SOLID
  5
11A
330
113
100
AcDbEntity
  8
1
 62
     2
100
AcDbTrace
 10
-74.26793656485314
 20
52.37499923504692
 30
0.0
 11
-74.72872030640902
 21
52.37499923504692
 31
0.0
 12
-74.49832843563108
 22
54.12499923504692
 32
0.0
 13
-74.49832843563108
 23
54.12499923504692
 33
0.0
  0
MTEXT
  5
11B
330
113
100
AcDbEntity
  8
1
 62
     3
100
AcDbMText
 10
-75.67332843563109
 20
61.31153723552399
 30
0.0
 40
1.75
 41
0.0
 71
     7
 72
     1
  1
4,15
  7
CONVERTER_11
 11
0.0
 21
1.0
 31
0.0
 73
     1
 44
0.60024009603842
  0
ENDBLK
  5
11D
330
113
100
AcDbEntity
  8
0
100
AcDbBlockEnd
  0
ENDSEC
  0
SECTION
  2
ENTITIES
  0
INSERT
  5
B5
330
1F
100
AcDbEntity
  8
1
100
AcDbBlockReference
  2
1
 10
0.0
 20
0.0
 30
0.0
  0
ENDSEC
  0
SECTION
  2
OBJECTS
  0
DICTIONARY
  5
C
330
0
100
AcDbDictionary
281
     1
  3
ACAD_DETAILVIEWSTYLE
350
29F
  3
ACAD_GROUP
350
D
  3
ACAD_LAYOUT
350
1A
  3
ACAD_MATERIAL
350
43
  3
ACAD_MLEADERSTYLE
350
6B
  3
ACAD_MLINESTYLE
350
17
  3
ACAD_PLOTSETTINGS
350
19
  3
ACAD_PLOTSTYLENAME
350
E
  3
ACAD_SCALELIST
350
47
  3
ACAD_SECTIONVIEWSTYLE
350
2A0
  3
ACAD_TABLESTYLE
350
69
  3
ACAD_VISUALSTYLE
350
2A
  3
ACDB_RECOMPOSE_DATA
350
29C
  3
AcDbVariableDictionary
350
25C
  0
DICTIONARY
  5
25A
330
8
100
AcDbDictionary
280
     1
281
     1
  3
ACAD_XREC_ROUNDTRIP
360
25B
  0
DICTIONARY
  5
29F
102
{ACAD_REACTORS
330
C
102
}
330
C
100
AcDbDictionary
281
     1
  0
DICTIONARY
  5
D
102
{ACAD_REACTORS
330
C
102
}
330
C
100
AcDbDictionary
281
     1
  0
DICTIONARY
  5
1A
102
{ACAD_REACTORS
330
C
102
}
330
C
100
AcDbDictionary
281
     1
  3
Layout1
350
1E
  3
Layout2
350
26
  3
Model
350
22
  0
DICTIONARY
  5
43
102
{ACAD_REACTORS
330
C
102
}
330
C
100
AcDbDictionary
281
     1
  3
ByBlock
350
45
  3
ByLayer
350
44
  3
Global
350
46
  0
DICTIONARY
  5
6B
102
{ACAD_REACTORS
330
C
102
}
330
C
100
AcDbDictionary
281
     1
  3
Standard
350
6C
  0
DICTIONARY
  5
17
102
{ACAD_REACTORS
330
C
102
}
330
C
100
AcDbDictionary
281
     1
  3
Standard
350
18
  0
DICTIONARY
  5
19
102
{ACAD_REACTORS
330
C
102
}
330
C
100
AcDbDictionary
281
     1
  0
ACDBDICTIONARYWDFLT
  5
E
102
{ACAD_REACTORS
330
C
102
}
330
C
100
AcDbDictionary
281
     1
  3
Normal
350
F
100
AcDbDictionaryWithDefault
340
F
  0
DICTIONARY
  5
47
102
{ACAD_REACTORS
330
C
102
}
330
C
100
AcDbDictionary
281
     1
  3
A0
350
48
  3
A1
350
49
  3
A2
350
4A
  3
A3
350
4B
  3
A4
350
4C
  3
A5
350
4D
  3
A6
350
4E
  3
A7
350
4F
  3
A8
350
50
  3
A9
350
51
  3
B0
350
52
  3
B1
350
53
  3
B2
350
54
  3
B3
350
55
  3
B4
350
56
  3
B5
350
57
  3
B6
350
58
  3
B7
350
59
  3
B8
350
5A
  3
B9
350
5B
  3
C0
350
5C
  3
C1
350
5D
  3
C2
350
5E
  3
C3
350
5F
  3
C4
350
60
  3
C5
350
61
  3
C6
350
62
  3
C7
350
63
  3
C8
350
64
  3
C9
350
65
  3
D0
350
66
  3
D1
350
67
  3
D2
350
68
  0
DICTIONARY
  5
2A0
102
{ACAD_REACTORS
330
C
102
}
330
C
100
AcDbDictionary
281
     1
  0
DICTIONARY
  5
69
102
{ACAD_REACTORS
330
C
102
}
330
C
100
AcDbDictionary
281
     1
  3
Standard
350
6A
  0
DICTIONARY
  5
2A
102
{ACAD_REACTORS
330
C
102
}
330
C
100
AcDbDictionary
281
     1
  3
2dWireframe
350
2F
  3
Basic
350
32
  3
Brighten
350
36
  3
ColorChange
350
3A
  3
Conceptual
350
34
  3
Dim
350
35
  3
EdgeColorOff
350
3D
  3
Facepattern
350
39
  3
Flat
350
2B
  3
FlatWithEdges
350
2C
  3
Gouraud
350
2D
  3
GouraudWithEdges
350
2E
  3
Hidden
350
31
  3
JitterOff
350
3B
  3
Linepattern
350
38
  3
OverhangOff
350
3C
  3
Realistic
350
33
  3
Shaded
350
42
  3
Shaded with edges
350
41
  3
Shades of Gray
350
3E
  3
Sketchy
350
3F
  3
Thicken
350
37
  3
Wireframe
350
30
  3
X-Ray
350
40
  0
XRECORD
  5
29C
102
{ACAD_REACTORS
330
C
102
}
330
C
100
AcDbXrecord
280
     1
 90
        1
330
6A
  0
DICTIONARY
  5
25C
102
{ACAD_REACTORS
330
C
102
}
330
C
100
AcDbDictionary
281
     1
  3
CANNOSCALE
350
25D
  3
CMLEADERSTYLE
350
29E
  3
CTABLESTYLE
350
29D
  3
MSLTSCALE
350
25E
  3
XCLIPFRAME
350
25F
  0
XRECORD
  5
25B
102
{ACAD_REACTORS
330
25A
102
}
330
25A
100
AcDbXrecord
280
     1
102
VTR_0.000_0.000_1.000_1.000_VISUALSTYLE
340
2F
102
VTR_0.000_0.000_1.000_1.000_GRIDDISPLAY
 70
     3
102
VTR_0.000_0.000_1.000_1.000_GRIDMAJOR
 70
     5
102
VTR_0.000_0.000_1.000_1.000_DEFAULTLIGHTING
280
     1
102
VTR_0.000_0.000_1.000_1.000_DEFAULTLIGHTINGTYPE
 70
     1
102
VTR_0.000_0.000_1.000_1.000_BRIGHTNESS
141
0.0
102
VTR_0.000_0.000_1.000_1.000_CONTRAST
142
0.0
  0
LAYOUT
  5
1E
102
{ACAD_REACTORS
330
1A
102
}
330
1A
100
AcDbPlotSettings
  1

  2
none_device
  4

  6

 40
0.0
 41
0.0
 42
0.0
 43
0.0
 44
0.0
 45
0.0
 46
0.0
 47
0.0
 48
0.0
 49
0.0
140
0.0
141
0.0
142
1.0
143
1.0
 70
   688
 72
     0
 73
     0
 74
     5
  7

 75
    16
 76
     0
 77
     2
 78
   300
147
1.0
148
0.0
149
0.0
100
AcDbLayout
  1
Layout1
 70
     1
 71
     1
 10
0.0
 20
0.0
 11
12.0
 21
9.0
 12
0.0
 22
0.0
 32
0.0
 14
1.00000000000000E+20
 24
1.00000000000000E+20
 34
1.00000000000000E+20
 15
-1.00000000000000E+20
 25
-1.00000000000000E+20
 35
-1.00000000000000E+20
146
0.0
 13
0.0
 23
0.0
 33
0.0
 16
1.0
 26
0.0
 36
0.0
 17
0.0
 27
1.0
 37
0.0
 76
     0
330
1B
  0
LAYOUT
  5
26
102
{ACAD_REACTORS
330
1A
102
}
330
1A
100
AcDbPlotSettings
  1

  2
none_device
  4

  6

 40
0.0
 41
0.0
 42
0.0
 43
0.0
 44
0.0
 45
0.0
 46
0.0
 47
0.0
 48
0.0
 49
0.0
140
0.0
141
0.0
142
1.0
143
1.0
 70
   688
 72
     0
 73
     0
 74
     5
  7

 75
    16
 76
     0
 77
     2
 78
   300
147
1.0
148
0.0
149
0.0
100
AcDbLayout
  1
Layout2
 70
     1
 71
     2
 10
0.0
 20
0.0
 11
0.0
 21
0.0
 12
0.0
 22
0.0
 32
0.0
 14
0.0
 24
0.0
 34
0.0
 15
0.0
 25
0.0
 35
0.0
146
0.0
 13
0.0
 23
0.0
 33
0.0
 16
1.0
 26
0.0
 36
0.0
 17
0.0
 27
1.0
 37
0.0
 76
     0
330
23
  0
LAYOUT
  5
22
102
{ACAD_REACTORS
330
1A
102
}
330
1A
100
AcDbPlotSettings
  1

  2
none_device
  4
Letter_(8.50_x_11.00_Inches)
  6

 40
6.35
 41
6.35
 42
6.35000508
 43
6.35000508
 44
215.9
 45
279.4
 46
0.0
 47
0.0
 48
0.0
 49
0.0
140
0.0
141
0.0
142
1.0
143
1.0
 70
  1712
 72
     0
 73
     0
 74
     0
  7

 75
     0
 76
     0
 77
     2
 78
   300
147
1.0
148
0.0
149
0.0
100
AcDbLayout
  1
Model
 70
     1
 71
     0
 10
0.0
 20
0.0
 11
12.0
 21
9.0
 12
0.0
 22
0.0
 32
0.0
 14
-244.037669747061
 24
2.28207210725108
 34
0.0
 15
52.96233025293711
 25
212.2820721072511
 35
0.0
146
0.0
 13
0.0
 23
0.0
 33
0.0
 16
1.0
 26
0.0
 36
0.0
 17
0.0
 27
1.0
 37
0.0
 76
     0
330
1F
331
29
  0
MATERIAL
  5
45
102
{ACAD_REACTORS
330
43
102
}
102
{ACAD_XDICTIONARY
360
292
102
}
330
43
100
AcDbMaterial
  1
ByBlock
  0
MATERIAL
  5
44
102
{ACAD_REACTORS
330
43
102
}
102
{ACAD_XDICTIONARY
360
290
102
}
330
43
100
AcDbMaterial
  1
ByLayer
  0
MATERIAL
  5
46
102
{ACAD_REACTORS
330
43
102
}
102
{ACAD_XDICTIONARY
360
294
102
}
330
43
100
AcDbMaterial
  1
Global
  0
MLEADERSTYLE
  5
6C
102
{ACAD_REACTORS
330
6B
102
}
102
{ACAD_XDICTIONARY
360
29A
102
}
330
6B
100
AcDbMLeaderStyle
170
     2
171
     1
172
     0
 90
        2
 40
0.0
 41
0.0
173
     1
 91
-1056964608
340
14
 92
       -2
290
     1
 42
0.09
291
     1
 43
0.36
  3
Standard
341
0
 44
0.18
300

342
11
174
     1
178
     6
175
     1
176
     0
 93
-1056964608
 45
0.18
292
     0
297
     0
 46
0.18
343
0
 94
-1056964608
 47
1.0
 49
1.0
140
1.0
293
     1
141
0.0
294
     1
177
     0
142
1.0
295
     0
296
     0
143
0.125
1001
ACAD_MLEADERVER
1070
     2
  0
MLINESTYLE
  5
18
102
{ACAD_REACTORS
330
17
102
}
330
17
100
AcDbMlineStyle
  2
Standard
 70
     0
  3

 62
   256
 51
90.0
 52
90.0
 71
     2
 49
0.5
 62
   256
  6
BYLAYER
 49
-0.5
 62
   256
  6
BYLAYER
  0
ACDBPLACEHOLDER
  5
F
102
{ACAD_REACTORS
330
E
102
}
330
E
  0
SCALE
  5
48
102
{ACAD_REACTORS
330
47
102
}
330
47
100
AcDbScale
 70
     0
300
1:1
140
1.0
141
1.0
290
     1
  0
SCALE
  5
49
102
{ACAD_REACTORS
330
47
102
}
330
47
100
AcDbScale
 70
     0
300
1:2
140
1.0
141
2.0
290
     0
  0
SCALE
  5
4A
102
{ACAD_REACTORS
330
47
102
}
330
47
100
AcDbScale
 70
     0
300
1:4
140
1.0
141
4.0
290
     0
  0
SCALE
  5
4B
102
{ACAD_REACTORS
330
47
102
}
330
47
100
AcDbScale
 70
     0
300
1:5
140
1.0
141
5.0
290
     0
  0
SCALE
  5
4C
102
{ACAD_REACTORS
330
47
102
}
330
47
100
AcDbScale
 70
     0
300
1:8
140
1.0
141
8.0
290
     0
  0
SCALE
  5
4D
102
{ACAD_REACTORS
330
47
102
}
330
47
100
AcDbScale
 70
     0
300
1:10
140
1.0
141
10.0
290
     0
  0
SCALE
  5
4E
102
{ACAD_REACTORS
330
47
102
}
330
47
100
AcDbScale
 70
     0
300
1:16
140
1.0
141
16.0
290
     0
  0
SCALE
  5
4F
102
{ACAD_REACTORS
330
47
102
}
330
47
100
AcDbScale
 70
     0
300
1:20
140
1.0
141
20.0
290
     0
  0
SCALE
  5
50
102
{ACAD_REACTORS
330
47
102
}
330
47
100
AcDbScale
 70
     0
300
1:30
140
1.0
141
30.0
290
     0
  0
SCALE
  5
51
102
{ACAD_REACTORS
330
47
102
}
330
47
100
AcDbScale
 70
     0
300
1:40
140
1.0
141
40.0
290
     0
  0
SCALE
  5
52
102
{ACAD_REACTORS
330
47
102
}
330
47
100
AcDbScale
 70
     0
300
1:50
140
1.0
141
50.0
290
     0
  0
SCALE
  5
53
102
{ACAD_REACTORS
330
47
102
}
330
47
100
AcDbScale
 70
     0
300
1:100
140
1.0
141
100.0
290
     0
  0
SCALE
  5
54
102
{ACAD_REACTORS
330
47
102
}
330
47
100
AcDbScale
 70
     0
300
2:1
140
2.0
141
1.0
290
     0
  0
SCALE
  5
55
102
{ACAD_REACTORS
330
47
102
}
330
47
100
AcDbScale
 70
     0
300
4:1
140
4.0
141
1.0
290
     0
  0
SCALE
  5
56
102
{ACAD_REACTORS
330
47
102
}
330
47
100
AcDbScale
 70
     0
300
8:1
140
8.0
141
1.0
290
     0
  0
SCALE
  5
57
102
{ACAD_REACTORS
330
47
102
}
330
47
100
AcDbScale
 70
     0
300
10:1
140
10.0
141
1.0
290
     0
  0
SCALE
  5
58
102
{ACAD_REACTORS
330
47
102
}
330
47
100
AcDbScale
 70
     0
300
100:1
140
100.0
141
1.0
290
     0
  0
SCALE
  5
59
102
{ACAD_REACTORS
330
47
102
}
330
47
100
AcDbScale
 70
     0
300
1/128" = 1'-0"
140
0.0078125
141
12.0
290
     0
  0
SCALE
  5
5A
102
{ACAD_REACTORS
330
47
102
}
330
47
100
AcDbScale
 70
     0
300
1/64" = 1'-0"
140
0.015625
141
12.0
290
     0
  0
SCALE
  5
5B
102
{ACAD_REACTORS
330
47
102
}
330
47
100
AcDbScale
 70
     0
300
1/32" = 1'-0"
140
0.03125
141
12.0
290
     0
  0
SCALE
  5
5C
102
{ACAD_REACTORS
330
47
102
}
330
47
100
AcDbScale
 70
     0
300
1/16" = 1'-0"
140
0.0625
141
12.0
290
     0
  0
SCALE
  5
5D
102
{ACAD_REACTORS
330
47
102
}
330
47
100
AcDbScale
 70
     0
300
3/32" = 1'-0"
140
0.09375
141
12.0
290
     0
  0
SCALE
  5
5E
102
{ACAD_REACTORS
330
47
102
}
330
47
100
AcDbScale
 70
     0
300
1/8" = 1'-0"
140
0.125
141
12.0
290
     0
  0
SCALE
  5
5F
102
{ACAD_REACTORS
330
47
102
}
330
47
100
AcDbScale
 70
     0
300
3/16" = 1'-0"
140
0.1875
141
12.0
290
     0
  0
SCALE
  5
60
102
{ACAD_REACTORS
330
47
102
}
330
47
100
AcDbScale
 70
     0
300
1/4" = 1'-0"
140
0.25
141
12.0
290
     0
  0
SCALE
  5
61
102
{ACAD_REACTORS
330
47
102
}
330
47
100
AcDbScale
 70
     0
300
3/8" = 1'-0"
140
0.375
141
12.0
290
     0
  0
SCALE
  5
62
102
{ACAD_REACTORS
330
47
102
}
330
47
100
AcDbScale
 70
     0
300
1/2" = 1'-0"
140
0.5
141
12.0
290
     0
  0
SCALE
  5
63
102
{ACAD_REACTORS
330
47
102
}
330
47
100
AcDbScale
 70
     0
300
3/4" = 1'-0"
140
0.75
141
12.0
290
     0
  0
SCALE
  5
64
102
{ACAD_REACTORS
330
47
102
}
330
47
100
AcDbScale
 70
     0
300
1" = 1'-0"
140
1.0
141
12.0
290
     0
  0
SCALE
  5
65
102
{ACAD_REACTORS
330
47
102
}
330
47
100
AcDbScale
 70
     0
300
1-1/2" = 1'-0"
140
1.5
141
12.0
290
     0
  0
SCALE
  5
66
102
{ACAD_REACTORS
330
47
102
}
330
47
100
AcDbScale
 70
     0
300
3" = 1'-0"
140
3.0
141
12.0
290
     0
  0
SCALE
  5
67
102
{ACAD_REACTORS
330
47
102
}
330
47
100
AcDbScale
 70
     0
300
6" = 1'-0"
140
6.0
141
12.0
290
     0
  0
SCALE
  5
68
102
{ACAD_REACTORS
330
47
102
}
330
47
100
AcDbScale
 70
     0
300
1'-0" = 1'-0"
140
12.0
141
12.0
290
     0
  0
TABLESTYLE
  5
6A
102
{ACAD_REACTORS
330
69
102
}
102
{ACAD_XDICTIONARY
360
296
102
}
330
69
100
AcDbTableStyle
  3
Standard
 70
     0
 71
     0
 40
0.06
 41
0.06
280
     0
281
     0
  7
Standard
140
0.18
170
     2
 62
     0
 63
   257
283
     0
274
    -2
284
     1
 64
     0
275
    -2
285
     1
 65
     0
276
    -2
286
     1
 66
     0
277
    -2
287
     1
 67
     0
278
    -2
288
     1
 68
     0
279
    -2
289
     1
 69
     0
  7
Standard
140
0.25
170
     5
 62
     0
 63
   257
283
     0
274
    -2
284
     1
 64
     0
275
    -2
285
     1
 65
     0
276
    -2
286
     1
 66
     0
277
    -2
287
     1
 67
     0
278
    -2
288
     1
 68
     0
279
    -2
289
     1
 69
     0
  7
Standard
140
0.18
170
     5
 62
     0
 63
   257
283
     0
274
    -2
284
     1
 64
     0
275
    -2
285
     1
 65
     0
276
    -2
286
     1
 66
     0
277
    -2
287
     1
 67
     0
278
    -2
288
     1
 68
     0
279
    -2
289
     1
 69
     0
  0
VISUALSTYLE
  5
2F
102
{ACAD_REACTORS
330
2A
102
}
102
{ACAD_XDICTIONARY
360
268
102
}
330
2A
100
AcDbVisualStyle
  2
2dWireframe
 70
     4
 71
     0
 72
     2
 73
     0
 90
        0
 40
0.6
 41
30.0
 62
     5
 63
     7
421
 16777215
 74
     1
 91
        4
 64
     7
 65
   257
 75
     1
175
     1
 42
1.0
 92
        0
 66
   257
 43
1.0
 76
     1
 77
     6
 78
     2
 67
     7
 79
     5
170
     0
171
     0
290
     0
174
     0
 93
        1
 44
0.0
173
     0
291
     0
 45
0.0
1001
ACAD
1000
AcDbSavedByObjectVersion
1070
     0
  0
VISUALSTYLE
  5
32
102
{ACAD_REACTORS
330
2A
102
}
102
{ACAD_XDICTIONARY
360
26E
102
}
330
2A
100
AcDbVisualStyle
  2
Basic
 70
     7
 71
     1
 72
     0
 73
     1
 90
        0
 40
0.6
 41
30.0
 62
     5
 63
     7
421
 16777215
 74
     0
 91
        4
 64
     7
 65
   257
 75
     1
175
     1
 42
1.0
 92
        8
 66
     7
 43
1.0
 76
     1
 77
     6
 78
     2
 67
     7
 79
     5
170
     0
171
     0
290
     0
174
     0
 93
        1
 44
0.0
173
     0
291
     1
 45
0.0
1001
ACAD
1000
AcDbSavedByObjectVersion
1070
     0
  0
VISUALSTYLE
  5
36
102
{ACAD_REACTORS
330
2A
102
}
102
{ACAD_XDICTIONARY
360
276
102
}
330
2A
100
AcDbVisualStyle
  2
Brighten
 70
    12
 71
     2
 72
     2
 73
     0
 90
        0
 40
0.6
 41
30.0
 62
     5
 63
     7
421
 16777215
 74
     1
 91
        4
 64
     7
 65
   257
 75
     1
175
     1
 42
1.0
 92
        8
 66
     7
 43
1.0
 76
     1
 77
     6
 78
     2
 67
     7
 79
     5
170
     0
171
     0
290
     0
174
     0
 93
        1
 44
50.0
173
     0
291
     1
 45
0.0
1001
ACAD
1000
AcDbSavedByObjectVersion
1070
     0
  0
VISUALSTYLE
  5
3A
102
{ACAD_REACTORS
330
2A
102
}
102
{ACAD_XDICTIONARY
360
27E
102
}
330
2A
100
AcDbVisualStyle
  2
ColorChange
 70
    16
 71
     2
 72
     2
 73
     3
 90
        0
 40
0.6
 41
30.0
 62
     5
 63
     8
421
  8421504
 74
     1
 91
        4
 64
     7
 65
   257
 75
     1
175
     1
 42
1.0
 92
        8
 66
     8
424
  8421504
 43
1.0
 76
     1
 77
     6
 78
     2
 67
     7
 79
     5
170
     0
171
     0
290
     0
174
     0
 93
        1
 44
0.0
173
     0
291
     1
 45
0.0
1001
ACAD
1000
AcDbSavedByObjectVersion
1070
     0
  0
VISUALSTYLE
  5
34
102
{ACAD_REACTORS
330
2A
102
}
102
{ACAD_XDICTIONARY
360
272
102
}
330
2A
100
AcDbVisualStyle
  2
Conceptual
 70
     9
 71
     3
 72
     2
 73
     0
 90
        0
 40
0.6
 41
30.0
 62
     5
 63
     7
421
 16777215
 74
     2
 91
        2
 64
     7
 65
   257
 75
     1
175
     1
 42
179.0
 92
        8
 66
     7
 43
1.0
 76
     1
 77
     6
 78
     2
 67
     7
 79
     3
170
     0
171
     0
290
     0
174
     0
 93
        1
 44
0.0
173
     0
291
     0
 45
0.0
1001
ACAD
1000
AcDbSavedByObjectVersion
1070
     0
  0
VISUALSTYLE
  5
35
102
{ACAD_REACTORS
330
2A
102
}
102
{ACAD_XDICTIONARY
360
274
102
}
330
2A
100
AcDbVisualStyle
  2
Dim
 70
    11
 71
     2
 72
     2
 73
     0
 90
        0
 40
0.6
 41
30.0
 62
     5
 63
     7
421
 16777215
 74
     1
 91
        4
 64
     7
 65
   257
 75
     1
175
     1
 42
1.0
 92
        8
 66
     7
 43
1.0
 76
     1
 77
     6
 78
     2
 67
     7
 79
     5
170
     0
171
     0
290
     0
174
     0
 93
        1
 44
-50.0
173
     0
291
     1
 45
0.0
1001
ACAD
1000
AcDbSavedByObjectVersion
1070
     0
  0
VISUALSTYLE
  5
3D
102
{ACAD_REACTORS
330
2A
102
}
102
{ACAD_XDICTIONARY
360
284
102
}
330
2A
100
AcDbVisualStyle
  2
EdgeColorOff
 70
    22
 71
     2
 72
     2
 73
     0
 90
        0
 40
0.6
 41
30.0
 62
     5
 63
     7
421
 16777215
 74
     1
 91
        4
 64
     7
 65
   257
 75
     1
175
     1
 42
1.0
 92
        8
 66
     7
 43
1.0
 76
     1
 77
     6
 78
     2
 67
     7
 79
     5
170
     0
171
     0
290
     0
174
     0
 93
        1
 44
0.0
173
     0
291
     1
 45
0.0
1001
ACAD
1000
AcDbSavedByObjectVersion
1070
     0
  0
VISUALSTYLE
  5
39
102
{ACAD_REACTORS
330
2A
102
}
102
{ACAD_XDICTIONARY
360
27C
102
}
330
2A
100
AcDbVisualStyle
  2
Facepattern
 70
    15
 71
     2
 72
     2
 73
     0
 90
        0
 40
0.6
 41
30.0
 62
     5
 63
     7
421
 16777215
 74
     1
 91
        4
 64
     7
 65
   257
 75
     1
175
     1
 42
1.0
 92
        8
 66
     7
 43
1.0
 76
     1
 77
     6
 78
     2
 67
     7
 79
     5
170
     0
171
     0
290
     0
174
     0
 93
        1
 44
0.0
173
     0
291
     1
 45
0.0
1001
ACAD
1000
AcDbSavedByObjectVersion
1070
     0
  0
VISUALSTYLE
  5
2B
102
{ACAD_REACTORS
330
2A
102
}
102
{ACAD_XDICTIONARY
360
260
102
}
330
2A
100
AcDbVisualStyle
  2
Flat
 70
     0
 71
     2
 72
     1
 73
     1
 90
        2
 40
0.6
 41
30.0
 62
     5
 63
     7
421
 16777215
 74
     0
 91
        0
 64
     7
 65
   257
 75
     1
175
     1
 42
1.0
 92
        8
 66
     7
 43
1.0
 76
     1
 77
     6
 78
     2
 67
     7
 79
     5
170
     0
171
     0
290
     0
174
     0
 93
       13
 44
0.0
173
     0
291
     1
 45
0.0
1001
ACAD
1000
AcDbSavedByObjectVersion
1070
     0
  0
VISUALSTYLE
  5
2C
102
{ACAD_REACTORS
330
2A
102
}
102
{ACAD_XDICTIONARY
360
262
102
}
330
2A
100
AcDbVisualStyle
  2
FlatWithEdges
 70
     1
 71
     2
 72
     1
 73
     1
 90
        2
 40
0.6
 41
30.0
 62
     5
 63
     7
421
 16777215
 74
     1
 91
        0
 64
     7
 65
   257
 75
     1
175
     1
 42
1.0
 92
        0
 66
   257
 43
1.0
 76
     1
 77
     6
 78
     2
 67
     7
 79
     5
170
     0
171
     0
290
     0
174
     0
 93
       13
 44
0.0
173
     0
291
     1
 45
0.0
1001
ACAD
1000
AcDbSavedByObjectVersion
1070
     0
  0
VISUALSTYLE
  5
2D
102
{ACAD_REACTORS
330
2A
102
}
102
{ACAD_XDICTIONARY
360
264
102
}
330
2A
100
AcDbVisualStyle
  2
Gouraud
 70
     2
 71
     2
 72
     2
 73
     1
 90
        2
 40
0.6
 41
30.0
 62
     5
 63
     7
421
 16777215
 74
     0
 91
        0
 64
     7
 65
   257
 75
     1
175
     1
 42
1.0
 92
        0
 66
     7
 43
1.0
 76
     1
 77
     6
 78
     2
 67
     7
 79
     5
170
     0
171
     0
290
     0
174
     0
 93
       13
 44
0.0
173
     0
291
     1
 45
0.0
1001
ACAD
1000
AcDbSavedByObjectVersion
1070
     0
  0
VISUALSTYLE
  5
2E
102
{ACAD_REACTORS
330
2A
102
}
102
{ACAD_XDICTIONARY
360
266
102
}
330
2A
100
AcDbVisualStyle
  2
GouraudWithEdges
 70
     3
 71
     2
 72
     2
 73
     1
 90
        2
 40
0.6
 41
30.0
 62
     5
 63
     7
421
 16777215
 74
     1
 91
        0
 64
     7
 65
   257
 75
     1
175
     1
 42
1.0
 92
        0
 66
   257
 43
1.0
 76
     1
 77
     6
 78
     2
 67
     7
 79
     5
170
     0
171
     0
290
     0
174
     0
 93
       13
 44
0.0
173
     0
291
     1
 45
0.0
1001
ACAD
1000
AcDbSavedByObjectVersion
1070
     0
  0
VISUALSTYLE
  5
31
102
{ACAD_REACTORS
330
2A
102
}
102
{ACAD_XDICTIONARY
360
26C
102
}
330
2A
100
AcDbVisualStyle
  2
Hidden
 70
     6
 71
     1
 72
     2
 73
     2
 90
        0
 40
0.6
 41
30.0
 62
     5
 63
     7
421
 16777215
 74
     2
 91
        2
 64
     7
 65
   257
 75
     2
175
     1
 42
40.0
 92
        0
 66
   257
 43
1.0
 76
     1
 77
     6
 78
     2
 67
     7
 79
     3
170
     0
171
     0
290
     0
174
     0
 93
        1
 44
0.0
173
     0
291
     0
 45
0.0
1001
ACAD
1000
AcDbSavedByObjectVersion
1070
     0
  0
VISUALSTYLE
  5
3B
102
{ACAD_REACTORS
330
2A
102
}
102
{ACAD_XDICTIONARY
360
280
102
}
330
2A
100
AcDbVisualStyle
  2
JitterOff
 70
    20
 71
     2
 72
     2
 73
     0
 90
        0
 40
0.6
 41
30.0
 62
     5
 63
     7
421
 16777215
 74
     1
 91
        4
 64
     7
 65
   257
 75
     1
175
     1
 42
1.0
 92
       10
 66
     7
 43
1.0
 76
     1
 77
     6
 78
     2
 67
     7
 79
     5
170
     0
171
     0
290
     0
174
     0
 93
        1
 44
0.0
173
     0
291
     1
 45
0.0
1001
ACAD
1000
AcDbSavedByObjectVersion
1070
     0
  0
VISUALSTYLE
  5
38
102
{ACAD_REACTORS
330
2A
102
}
102
{ACAD_XDICTIONARY
360
27A
102
}
330
2A
100
AcDbVisualStyle
  2
Linepattern
 70
    14
 71
     2
 72
     2
 73
     0
 90
        0
 40
0.6
 41
30.0
 62
     5
 63
     7
421
 16777215
 74
     1
 91
        4
 64
     7
 65
   257
 75
     7
175
     7
 42
1.0
 92
        8
 66
     7
 43
1.0
 76
     1
 77
     6
 78
     2
 67
     7
 79
     5
170
     0
171
     0
290
     0
174
     0
 93
        1
 44
0.0
173
     0
291
     1
 45
0.0
1001
ACAD
1000
AcDbSavedByObjectVersion
1070
     0
  0
VISUALSTYLE
  5
3C
102
{ACAD_REACTORS
330
2A
102
}
102
{ACAD_XDICTIONARY
360
282
102
}
330
2A
100
AcDbVisualStyle
  2
OverhangOff
 70
    21
 71
     2
 72
     2
 73
     0
 90
        0
 40
0.6
 41
30.0
 62
     5
 63
     7
421
 16777215
 74
     1
 91
        4
 64
     7
 65
   257
 75
     1
175
     1
 42
1.0
 92
        9
 66
     7
 43
1.0
 76
     1
 77
     6
 78
     2
 67
     7
 79
     5
170
     0
171
     0
290
     0
174
     0
 93
        1
 44
0.0
173
     0
291
     1
 45
0.0
1001
ACAD
1000
AcDbSavedByObjectVersion
1070
     0
  0
VISUALSTYLE
  5
33
102
{ACAD_REACTORS
330
2A
102
}
102
{ACAD_XDICTIONARY
360
270
102
}
330
2A
100
AcDbVisualStyle
  2
Realistic
 70
     8
 71
     2
 72
     3
 73
     0
 90
        2
 40
0.6
 41
30.0
 62
     5
 63
     7
421
 16777215
 74
     0
 91
        0
 64
     7
 65
   257
 75
     1
175
     1
 42
1.0
 92
        8
 66
   257
 43
1.0
 76
     1
 77
     6
 78
     2
 67
     7
 79
     3
170
     0
171
     0
290
     0
174
     0
 93
       13
 44
0.0
173
     0
291
     0
 45
0.0
1001
ACAD
1000
AcDbSavedByObjectVersion
1070
     0
  0
VISUALSTYLE
  5
42
102
{ACAD_REACTORS
330
2A
102
}
102
{ACAD_XDICTIONARY
360
28E
102
}
330
2A
100
AcDbVisualStyle
  2
Shaded
 70
    27
 71
     2
 72
     2
 73
     1
 90
        2
 40
0.6
 41
30.0
 62
     5
 63
     7
421
 16777215
 74
     0
 91
        4
 64
     7
 65
   257
 75
     1
175
     1
 42
1.0
 92
        8
 66
   257
 43
1.0
 76
     1
 77
     6
 78
     2
 67
     8
425
  7895160
 79
     3
170
     0
171
     0
290
     0
174
     0
 93
        5
 44
0.0
173
     0
291
     0
 45
0.0
1001
ACAD
1000
AcDbSavedByObjectVersion
1070
     0
  0
VISUALSTYLE
  5
41
102
{ACAD_REACTORS
330
2A
102
}
102
{ACAD_XDICTIONARY
360
28C
102
}
330
2A
100
AcDbVisualStyle
  2
Shaded with edges
 70
    26
 71
     2
 72
     2
 73
     1
 90
        2
 40
0.6
 41
30.0
 62
     5
 63
     7
421
 16777215
 74
     1
 91
       10
 64
     7
 65
   257
 75
     2
175
     1
 42
1.0
 92
        8
 66
   257
 43
1.0
 76
     1
 77
     6
 78
     2
 67
     7
 79
     3
170
     0
171
     0
290
     0
174
     0
 93
        5
 44
0.0
173
     0
291
     0
 45
0.0
1001
ACAD
1000
AcDbSavedByObjectVersion
1070
     0
  0
VISUALSTYLE
  5
3E
102
{ACAD_REACTORS
330
2A
102
}
102
{ACAD_XDICTIONARY
360
286
102
}
330
2A
100
AcDbVisualStyle
  2
Shades of Gray
 70
    23
 71
     2
 72
     2
 73
     3
 90
        0
 40
0.6
 41
30.0
 62
     5
 63
     7
421
 16777215
 74
     2
 91
        2
 64
     7
 65
     7
 75
     1
175
     1
 42
40.0
 92
        8
 66
     7
 43
1.0
 76
     1
 77
     6
 78
     2
 67
     7
 79
     3
170
     0
171
     0
290
     0
174
     0
 93
        1
 44
0.0
173
     0
291
     0
 45
0.0
1001
ACAD
1000
AcDbSavedByObjectVersion
1070
     0
  0
VISUALSTYLE
  5
3F
102
{ACAD_REACTORS
330
2A
102
}
102
{ACAD_XDICTIONARY
360
288
102
}
330
2A
100
AcDbVisualStyle
  2
Sketchy
 70
    24
 71
     1
 72
     2
 73
     2
 90
        0
 40
0.6
 41
30.0
 62
     5
 63
     7
421
 16777215
 74
     2
 91
        2
 64
     7
 65
     7
 75
     1
175
     1
 42
40.0
 92
       11
 66
     7
 43
1.0
 76
     1
 77
     6
 78
     2
 67
     7
 79
     6
170
     0
171
     0
290
     0
174
     0
 93
        1
 44
0.0
173
     0
291
     0
 45
0.0
1001
ACAD
1000
AcDbSavedByObjectVersion
1070
     0
  0
VISUALSTYLE
  5
37
102
{ACAD_REACTORS
330
2A
102
}
102
{ACAD_XDICTIONARY
360
278
102
}
330
2A
100
AcDbVisualStyle
  2
Thicken
 70
    13
 71
     2
 72
     2
 73
     0
 90
        0
 40
0.6
 41
30.0
 62
     5
 63
     7
421
 16777215
 74
     1
 91
        4
 64
     7
 65
   257
 75
     1
175
     1
 42
1.0
 92
       12
 66
     7
 43
1.0
 76
     1
 77
     6
 78
     2
 67
     7
 79
     5
170
     0
171
     0
290
     0
174
     0
 93
        1
 44
0.0
173
     0
291
     1
 45
0.0
1001
ACAD
1000
AcDbSavedByObjectVersion
1070
     0
  0
VISUALSTYLE
  5
30
102
{ACAD_REACTORS
330
2A
102
}
102
{ACAD_XDICTIONARY
360
26A
102
}
330
2A
100
AcDbVisualStyle
  2
Wireframe
 70
     5
 71
     0
 72
     2
 73
     0
 90
        0
 40
0.6
 41
30.0
 62
     5
 63
     7
421
 16777215
 74
     1
 91
        4
 64
     7
 65
   257
 75
     1
175
     1
 42
1.0
 92
        0
 66
   257
 43
1.0
 76
     1
 77
     6
 78
     2
 67
     7
 79
     3
170
     0
171
     0
290
     0
174
     0
 93
        1
 44
0.0
173
     0
291
     0
 45
0.0
1001
ACAD
1000
AcDbSavedByObjectVersion
1070
     0
  0
VISUALSTYLE
  5
40
102
{ACAD_REACTORS
330
2A
102
}
102
{ACAD_XDICTIONARY
360
28A
102
}
330
2A
100
AcDbVisualStyle
  2
X-Ray
 70
    25
 71
     2
 72
     2
 73
     1
 90
        1
 40
0.5
 41
30.0
 62
     5
 63
     7
421
 16777215
 74
     1
 91
        0
 64
     7
 65
   257
 75
     1
175
     1
 42
1.0
 92
        8
 66
     7
 43
1.0
 76
     1
 77
     6
 78
     2
 67
     7
 79
     3
170
     0
171
     0
290
     0
174
     0
 93
       13
 44
0.0
173
     0
291
     0
 45
0.0
1001
ACAD
1000
AcDbSavedByObjectVersion
1070
     0
  0
DICTIONARYVAR
  5
25D
102
{ACAD_REACTORS
330
25C
102
}
330
25C
100
DictionaryVariables
280
     0
  1
1:1
  0
DICTIONARYVAR
  5
29E
102
{ACAD_REACTORS
330
25C
102
}
330
25C
100
DictionaryVariables
280
     0
  1
Standard
  0
DICTIONARYVAR
  5
29D
102
{ACAD_REACTORS
330
25C
102
}
330
25C
100
DictionaryVariables
280
     0
  1
Standard
  0
DICTIONARYVAR
  5
25E
102
{ACAD_REACTORS
330
25C
102
}
330
25C
100
DictionaryVariables
280
     0
  1
1
  0
DICTIONARYVAR
  5
25F
102
{ACAD_REACTORS
330
25C
102
}
330
25C
100
DictionaryVariables
280
     0
  1
2
  0
DICTIONARY
  5
292
330
45
100
AcDbDictionary
280
     1
281
     1
  3
ACAD_XREC_ROUNDTRIP
360
293
  0
DICTIONARY
  5
290
330
44
100
AcDbDictionary
280
     1
281
     1
  3
ACAD_XREC_ROUNDTRIP
360
291
  0
DICTIONARY
  5
294
330
46
100
AcDbDictionary
280
     1
281
     1
  3
ACAD_XREC_ROUNDTRIP
360
295
  0
DICTIONARY
  5
29A
330
6C
100
AcDbDictionary
280
     1
281
     1
  3
ACAD_XREC_ROUNDTRIP
360
29B
  0
DICTIONARY
  5
296
330
6A
100
AcDbDictionary
280
     1
281
     1
  3
ACAD_ROUNDTRIP_2008_TABLESTYLE_CELLSTYLEMAP
360
298
  3
ACAD_XREC_ROUNDTRIP
360
297
  0
DICTIONARY
  5
268
330
2F
100
AcDbDictionary
280
     1
281
     1
  3
ACAD_XREC_ROUNDTRIP
360
269
  0
DICTIONARY
  5
26E
330
32
100
AcDbDictionary
280
     1
281
     1
  3
ACAD_XREC_ROUNDTRIP
360
26F
  0
DICTIONARY
  5
276
330
36
100
AcDbDictionary
280
     1
281
     1
  3
ACAD_XREC_ROUNDTRIP
360
277
  0
DICTIONARY
  5
27E
330
3A
100
AcDbDictionary
280
     1
281
     1
  3
ACAD_XREC_ROUNDTRIP
360
27F
  0
DICTIONARY
  5
272
330
34
100
AcDbDictionary
280
     1
281
     1
  3
ACAD_XREC_ROUNDTRIP
360
273
  0
DICTIONARY
  5
274
330
35
100
AcDbDictionary
280
     1
281
     1
  3
ACAD_XREC_ROUNDTRIP
360
275
  0
DICTIONARY
  5
284
330
3D
100
AcDbDictionary
280
     1
281
     1
  3
ACAD_XREC_ROUNDTRIP
360
285
  0
DICTIONARY
  5
27C
330
39
100
AcDbDictionary
280
     1
281
     1
  3
ACAD_XREC_ROUNDTRIP
360
27D
  0
DICTIONARY
  5
260
330
2B
100
AcDbDictionary
280
     1
281
     1
  3
ACAD_XREC_ROUNDTRIP
360
261
  0
DICTIONARY
  5
262
330
2C
100
AcDbDictionary
280
     1
281
     1
  3
ACAD_XREC_ROUNDTRIP
360
263
  0
DICTIONARY
  5
264
330
2D
100
AcDbDictionary
280
     1
281
     1
  3
ACAD_XREC_ROUNDTRIP
360
265
  0
DICTIONARY
  5
266
330
2E
100
AcDbDictionary
280
     1
281
     1
  3
ACAD_XREC_ROUNDTRIP
360
267
  0
DICTIONARY
  5
26C
330
31
100
AcDbDictionary
280
     1
281
     1
  3
ACAD_XREC_ROUNDTRIP
360
26D
  0
DICTIONARY
  5
280
330
3B
100
AcDbDictionary
280
     1
281
     1
  3
ACAD_XREC_ROUNDTRIP
360
281
  0
DICTIONARY
  5
27A
330
38
100
AcDbDictionary
280
     1
281
     1
  3
ACAD_XREC_ROUNDTRIP
360
27B
  0
DICTIONARY
  5
282
330
3C
100
AcDbDictionary
280
     1
281
     1
  3
ACAD_XREC_ROUNDTRIP
360
283
  0
DICTIONARY
  5
270
330
33
100
AcDbDictionary
280
     1
281
     1
  3
ACAD_XREC_ROUNDTRIP
360
271
  0
DICTIONARY
  5
28E
330
42
100
AcDbDictionary
280
     1
281
     1
  3
ACAD_XREC_ROUNDTRIP
360
28F
  0
DICTIONARY
  5
28C
330
41
100
AcDbDictionary
280
     1
281
     1
  3
ACAD_XREC_ROUNDTRIP
360
28D
  0
DICTIONARY
  5
286
330
3E
100
AcDbDictionary
280
     1
281
     1
  3
ACAD_XREC_ROUNDTRIP
360
287
  0
DICTIONARY
  5
288
330
3F
100
AcDbDictionary
280
     1
281
     1
  3
ACAD_XREC_ROUNDTRIP
360
289
  0
DICTIONARY
  5
278
330
37
100
AcDbDictionary
280
     1
281
     1
  3
ACAD_XREC_ROUNDTRIP
360
279
  0
DICTIONARY
  5
26A
330
30
100
AcDbDictionary
280
     1
281
     1
  3
ACAD_XREC_ROUNDTRIP
360
26B
  0
DICTIONARY
  5
28A
330
40
100
AcDbDictionary
280
     1
281
     1
  3
ACAD_XREC_ROUNDTRIP
360
28B
  0
XRECORD
  5
293
102
{ACAD_REACTORS
330
292
102
}
330
292
100
AcDbXrecord
280
     1
102
MATERIAL
148
0.0
149
0.0
149
0.0
 93
        0
 94
      127
282
     0
 72
     1
 77
     1
171
     1
175
     1
179
     1
273
     0
  0
XRECORD
  5
291
102
{ACAD_REACTORS
330
290
102
}
330
290
100
AcDbXrecord
280
     1
102
MATERIAL
148
0.0
149
0.0
149
0.0
 93
        0
 94
      127
282
     0
 72
     1
 77
     1
171
     1
175
     1
179
     1
273
     0
  0
XRECORD
  5
295
102
{ACAD_REACTORS
330
294
102
}
330
294
100
AcDbXrecord
280
     1
102
MATERIAL
148
0.0
149
0.0
149
0.0
 93
        0
 94
      127
282
     0
 72
     1
 77
     1
171
     1
175
     1
179
     1
273
     0
  0
XRECORD
  5
29B
102
{ACAD_REACTORS
330
29A
102
}
330
29A
100
AcDbXrecord
280
     1
102
ACAD_ROUNDTRIP_2010_MLEADER_STYLE
  0
CELLSTYLEMAP
  5
298
102
{ACAD_REACTORS
330
296
102
}
330
296
100
AcDbCellStyleMap
 90
        3
300
CELLSTYLE
  1
TABLEFORMAT_BEGIN
 90
        5
170
     1
 91
        0
 92
    32768
 62
   257
 93
        1
300
CONTENTFORMAT
  1
CONTENTFORMAT_BEGIN
 90
        0
 91
        0
 92
        4
 93
        0
300

 40
0.0
140
1.0
 94
        5
 62
     0
340
11
144
0.25
309
CONTENTFORMAT_END
171
     1
301
MARGIN
  1
CELLMARGIN_BEGIN
 40
0.06
 40
0.06
 40
0.06
 40
0.06
 40
0.06
 40
0.06
309
CELLMARGIN_END
 94
        6
 95
        1
302
GRIDFORMAT
  1
GRIDFORMAT_BEGIN
 90
        0
 91
        1
 62
     0
 92
       -2
340
14
 93
        0
 40
0.045
309
GRIDFORMAT_END
 95
        2
302
GRIDFORMAT
  1
GRIDFORMAT_BEGIN
 90
        0
 91
        1
 62
     0
 92
       -2
340
14
 93
        0
 40
0.045
309
GRIDFORMAT_END
 95
        4
302
GRIDFORMAT
  1
GRIDFORMAT_BEGIN
 90
        0
 91
        1
 62
     0
 92
       -2
340
14
 93
        0
 40
0.045
309
GRIDFORMAT_END
 95
        8
302
GRIDFORMAT
  1
GRIDFORMAT_BEGIN
 90
        0
 91
        1
 62
     0
 92
       -2
340
14
 93
        0
 40
0.045
309
GRIDFORMAT_END
 95
       16
302
GRIDFORMAT
  1
GRIDFORMAT_BEGIN
 90
        0
 91
        1
 62
     0
 92
       -2
340
14
 93
        0
 40
0.045
309
GRIDFORMAT_END
 95
       32
302
GRIDFORMAT
  1
GRIDFORMAT_BEGIN
 90
        0
 91
        1
 62
     0
 92
       -2
340
14
 93
        0
 40
0.045
309
GRIDFORMAT_END
309
TABLEFORMAT_END
  1
CELLSTYLE_BEGIN
 90
        1
 91
        1
300
_TITLE
309
CELLSTYLE_END
300
CELLSTYLE
  1
TABLEFORMAT_BEGIN
 90
        5
170
     1
 91
        0
 92
        0
 62
   257
 93
        1
300
CONTENTFORMAT
  1
CONTENTFORMAT_BEGIN
 90
        0
 91
        0
 92
        4
 93
        0
300

 40
0.0
140
1.0
 94
        5
 62
     0
340
11
144
0.18
309
CONTENTFORMAT_END
171
     1
301
MARGIN
  1
CELLMARGIN_BEGIN
 40
0.06
 40
0.06
 40
0.06
 40
0.06
 40
0.06
 40
0.06
309
CELLMARGIN_END
 94
        6
 95
        1
302
GRIDFORMAT
  1
GRIDFORMAT_BEGIN
 90
        0
 91
        1
 62
     0
 92
       -2
340
14
 93
        0
 40
0.045
309
GRIDFORMAT_END
 95
        2
302
GRIDFORMAT
  1
GRIDFORMAT_BEGIN
 90
        0
 91
        1
 62
     0
 92
       -2
340
14
 93
        0
 40
0.045
309
GRIDFORMAT_END
 95
        4
302
GRIDFORMAT
  1
GRIDFORMAT_BEGIN
 90
        0
 91
        1
 62
     0
 92
       -2
340
14
 93
        0
 40
0.045
309
GRIDFORMAT_END
 95
        8
302
GRIDFORMAT
  1
GRIDFORMAT_BEGIN
 90
        0
 91
        1
 62
     0
 92
       -2
340
14
 93
        0
 40
0.045
309
GRIDFORMAT_END
 95
       16
302
GRIDFORMAT
  1
GRIDFORMAT_BEGIN
 90
        0
 91
        1
 62
     0
 92
       -2
340
14
 93
        0
 40
0.045
309
GRIDFORMAT_END
 95
       32
302
GRIDFORMAT
  1
GRIDFORMAT_BEGIN
 90
        0
 91
        1
 62
     0
 92
       -2
340
14
 93
        0
 40
0.045
309
GRIDFORMAT_END
309
TABLEFORMAT_END
  1
CELLSTYLE_BEGIN
 90
        2
 91
        1
300
_HEADER
309
CELLSTYLE_END
300
CELLSTYLE
  1
TABLEFORMAT_BEGIN
 90
        5
170
     1
 91
        0
 92
        0
 62
   257
 93
        1
300
CONTENTFORMAT
  1
CONTENTFORMAT_BEGIN
 90
        0
 91
        0
 92
        4
 93
        0
300

 40
0.0
140
1.0
 94
        2
 62
     0
340
11
144
0.18
309
CONTENTFORMAT_END
171
     1
301
MARGIN
  1
CELLMARGIN_BEGIN
 40
0.06
 40
0.06
 40
0.06
 40
0.06
 40
0.06
 40
0.06
309
CELLMARGIN_END
 94
        6
 95
        1
302
GRIDFORMAT
  1
GRIDFORMAT_BEGIN
 90
        0
 91
        1
 62
     0
 92
       -2
340
14
 93
        0
 40
0.045
309
GRIDFORMAT_END
 95
        2
302
GRIDFORMAT
  1
GRIDFORMAT_BEGIN
 90
        0
 91
        1
 62
     0
 92
       -2
340
14
 93
        0
 40
0.045
309
GRIDFORMAT_END
 95
        4
302
GRIDFORMAT
  1
GRIDFORMAT_BEGIN
 90
        0
 91
        1
 62
     0
 92
       -2
340
14
 93
        0
 40
0.045
309
GRIDFORMAT_END
 95
        8
302
GRIDFORMAT
  1
GRIDFORMAT_BEGIN
 90
        0
 91
        1
 62
     0
 92
       -2
340
14
 93
        0
 40
0.045
309
GRIDFORMAT_END
 95
       16
302
GRIDFORMAT
  1
GRIDFORMAT_BEGIN
 90
        0
 91
        1
 62
     0
 92
       -2
340
14
 93
        0
 40
0.045
309
GRIDFORMAT_END
 95
       32
302
GRIDFORMAT
  1
GRIDFORMAT_BEGIN
 90
        0
 91
        1
 62
     0
 92
       -2
340
14
 93
        0
 40
0.045
309
GRIDFORMAT_END
309
TABLEFORMAT_END
  1
CELLSTYLE_BEGIN
 90
        3
 91
        2
300
_DATA
309
CELLSTYLE_END
  0
XRECORD
  5
297
102
{ACAD_REACTORS
330
296
102
}
330
296
100
AcDbXrecord
280
     1
102
ACAD_ROUNDTRIP_PRE2007_TABLESTYLE
 90
        4
 91
        0
  1

 92
        4
 93
        0
  2

 94
        4
 95
        0
  3

  0
XRECORD
  5
269
102
{ACAD_REACTORS
330
268
102
}
330
268
100
AcDbXrecord
280
     1
102
RTVSPropertyOp0
 70
     1
102
RTVSPropertyOp1
 70
     1
102
RTVSPropertyOp2
 70
     1
102
RTVSPropertyOp3
 70
     1
102
RTVSPropertyOp4
 70
     1
102
RTVSPropertyOp5
 70
     1
102
RTVSPropertyOp6
 70
     1
102
RTVSPropertyOp7
 70
     1
102
RTVSPropertyOp8
 70
     1
102
RTVSPropertyOp9
 70
     1
102
RTVSPropertyOp10
 70
     1
102
RTVSPropertyOp11
 70
     1
102
RTVSPropertyOp12
 70
     1
102
RTVSPropertyOp13
 70
     1
102
RTVSPropertyOp14
 70
     1
102
RTVSPropertyOp15
 70
     1
102
RTVSPropertyOp16
 70
     1
102
RTVSPropertyOp17
 70
     1
102
RTVSPropertyOp18
 70
     1
102
RTVSPropertyOp19
 70
     1
102
RTVSPropertyOp20
 70
     1
102
RTVSPropertyOp21
 70
     1
102
RTVSPropertyOp22
 70
     1
102
RTVSPropertyOp23
 70
     1
102
RTVSPropertyOp24
 70
     1
102
RTVSPropertyOp25
 70
     1
102
RTVSPropertyOp26
 70
     1
102
RTVSPropertyOp27
 70
     1
102
RTVSPropertyOp28
 70
     1
102
RTVSPropertyOp29
 70
     1
102
RTVSPropertyOp30
 70
     1
102
RTVSPropertyOp31
 70
     1
102
RTVSPropertyOp32
 70
     1
102
RTVSPropertyOp33
 70
     1
102
RTVSPropertyOp34
 70
     1
102
RTVSPropertyOp35
 70
     1
102
RTVSPropertyOp36
 70
     1
102
RTVSPropertyOp37
 70
     1
102
RTVSPropertyOp38
 70
     1
102
RTVSPropertyOp39
 70
     1
102
RTVSPropertyOp40
 70
     1
102
RTVSPropertyOp41
 70
     1
102
RTVSPropertyOp42
 70
     1
102
RTVSPropertyOp43
 70
     1
102
RTVSPropertyOp44
 70
     1
102
RTVSPropertyOp45
 70
     1
102
RTVSPropertyOp46
 70
     1
102
RTVSPropertyOp47
 70
     1
102
RTVSPropertyOp48
 70
     1
102
RTVSPropertyOp49
 70
     1
102
RTVSPropertyOp50
 70
     1
102
RTVSPropertyOp51
 70
     0
102
RTVSPropertyOp52
 70
     0
102
RTVSPropertyOp53
 70
     1
102
RTVSPropertyOp54
 70
     1
102
RTVSPropertyOp55
 70
     1
102
RTVSPropertyOp56
 70
     1
102
RTVSPropertyOp57
 70
     1
102
RTVSPost2010Prop28
280
     1
102
RTVSPost2010PropOp28
 70
     1
102
RTVSPost2010Prop29
280
     1
102
RTVSPost2010PropOp29
 70
     1
102
RTVSPost2010Prop30
280
     0
102
RTVSPost2010PropOp30
 70
     1
102
RTVSPost2010Prop31
280
     0
102
RTVSPost2010PropOp31
 70
     1
102
RTVSPost2010Prop32
280
     0
102
RTVSPost2010PropOp32
 70
     1
102
RTVSPost2010Prop33
280
     0
102
RTVSPost2010PropOp33
 70
     1
102
RTVSPost2010Prop34
280
     0
102
RTVSPost2010PropOp34
 70
     1
102
RTVSPost2010Prop35
280
     0
102
RTVSPost2010PropOp35
 70
     1
102
RTVSPost2010Prop36
280
     0
102
RTVSPost2010PropOp36
 70
     1
102
RTVSPost2010Prop37
 90
       50
102
RTVSPost2010PropOp37
 70
     1
102
RTVSPost2010Prop38
140
0.0
102
RTVSPost2010PropOp38
 70
     1
102
RTVSPost2010Prop39
140
1.0
102
RTVSPost2010PropOp39
 70
     1
102
RTVSPost2010Prop40
 90
        0
102
RTVSPost2010PropOp40
 70
     1
102
RTVSPost2010Prop41ColorIndex
 90
       18
102
RTVSPost2010Prop41ColorRGB
 90
        0
102
RTVSPost2010PropOp41
 70
     1
102
RTVSPost2010Prop42
 90
       50
102
RTVSPost2010PropOp42
 70
     1
102
RTVSPost2010Prop43
 90
        3
102
RTVSPost2010PropOp43
 70
     1
102
RTVSPost2010Prop44ColorIndex
 90
        5
102
RTVSPost2010Prop44ColorRGB
 90
      255
102
RTVSPost2010PropOp44
 70
     1
102
RTVSPost2010Prop45
280
     0
102
RTVSPost2010PropOp45
 70
     1
102
RTVSPost2010Prop46
 90
       50
102
RTVSPost2010PropOp46
 70
     1
102
RTVSPost2010Prop47
 90
       50
102
RTVSPost2010PropOp47
 70
     1
102
RTVSPost2010Prop48
 90
       50
102
RTVSPost2010PropOp48
 70
     1
102
RTVSPost2010Prop49
280
     0
102
RTVSPost2010PropOp49
 70
     1
102
RTVSPost2010Prop50
 90
       50
102
RTVSPost2010PropOp50
 70
     1
102
RTVSPost2010Prop51ColorIndex
 90
      256
102
RTVSPost2010Prop51ColorRGB
 90
-16777216
102
RTVSPost2010PropOp51
 70
     0
102
RTVSPost2010Prop52
140
1.0
102
RTVSPost2010PropOp52
 70
     0
102
RTVSPost2010Prop53
 90
        2
102
RTVSPost2010PropOp53
 70
     1
102
RTVSPost2010Prop54
  1
strokes_ogs.tif
102
RTVSPost2010PropOp54
 70
     1
102
RTVSPost2010Prop55
280
     0
102
RTVSPost2010PropOp55
 70
     1
102
RTVSPost2010Prop56
140
1.0
102
RTVSPost2010PropOp56
 70
     1
102
RTVSPost2010Prop57
140
1.0
102
RTVSPost2010PropOp57
 70
     1
  0
XRECORD
  5
26F
102
{ACAD_REACTORS
330
26E
102
}
330
26E
100
AcDbXrecord
280
     1
102
RTVSPropertyOp0
 70
     1
102
RTVSPropertyOp1
 70
     1
102
RTVSPropertyOp2
 70
     1
102
RTVSPropertyOp3
 70
     1
102
RTVSPropertyOp4
 70
     1
102
RTVSPropertyOp5
 70
     1
102
RTVSPropertyOp6
 70
     1
102
RTVSPropertyOp7
 70
     1
102
RTVSPropertyOp8
 70
     1
102
RTVSPropertyOp9
 70
     1
102
RTVSPropertyOp10
 70
     1
102
RTVSPropertyOp11
 70
     1
102
RTVSPropertyOp12
 70
     1
102
RTVSPropertyOp13
 70
     1
102
RTVSPropertyOp14
 70
     1
102
RTVSPropertyOp15
 70
     1
102
RTVSPropertyOp16
 70
     1
102
RTVSPropertyOp17
 70
     1
102
RTVSPropertyOp18
 70
     1
102
RTVSPropertyOp19
 70
     1
102
RTVSPropertyOp20
 70
     1
102
RTVSPropertyOp21
 70
     1
102
RTVSPropertyOp22
 70
     1
102
RTVSPropertyOp23
 70
     1
102
RTVSPropertyOp24
 70
     1
102
RTVSPropertyOp25
 70
     1
102
RTVSPropertyOp26
 70
     1
102
RTVSPropertyOp27
 70
     1
102
RTVSPropertyOp28
 70
     1
102
RTVSPropertyOp29
 70
     1
102
RTVSPropertyOp30
 70
     1
102
RTVSPropertyOp31
 70
     1
102
RTVSPropertyOp32
 70
     1
102
RTVSPropertyOp33
 70
     1
102
RTVSPropertyOp34
 70
     1
102
RTVSPropertyOp35
 70
     1
102
RTVSPropertyOp36
 70
     1
102
RTVSPropertyOp37
 70
     1
102
RTVSPropertyOp38
 70
     1
102
RTVSPropertyOp39
 70
     1
102
RTVSPropertyOp40
 70
     1
102
RTVSPropertyOp41
 70
     1
102
RTVSPropertyOp42
 70
     1
102
RTVSPropertyOp43
 70
     1
102
RTVSPropertyOp44
 70
     1
102
RTVSPropertyOp45
 70
     1
102
RTVSPropertyOp46
 70
     1
102
RTVSPropertyOp47
 70
     1
102
RTVSPropertyOp48
 70
     1
102
RTVSPropertyOp49
 70
     1
102
RTVSPropertyOp50
 70
     1
102
RTVSPropertyOp51
 70
     0
102
RTVSPropertyOp52
 70
     0
102
RTVSPropertyOp53
 70
     1
102
RTVSPropertyOp54
 70
     1
102
RTVSPropertyOp55
 70
     1
102
RTVSPropertyOp56
 70
     1
102
RTVSPropertyOp57
 70
     1
102
RTVSPost2010Prop28
280
     0
102
RTVSPost2010PropOp28
 70
     1
102
RTVSPost2010Prop29
280
     1
102
RTVSPost2010PropOp29
 70
     1
102
RTVSPost2010Prop30
280
     1
102
RTVSPost2010PropOp30
 70
     1
102
RTVSPost2010Prop31
280
     0
102
RTVSPost2010PropOp31
 70
     1
102
RTVSPost2010Prop32
280
     0
102
RTVSPost2010PropOp32
 70
     1
102
RTVSPost2010Prop33
280
     0
102
RTVSPost2010PropOp33
 70
     1
102
RTVSPost2010Prop34
280
     0
102
RTVSPost2010PropOp34
 70
     1
102
RTVSPost2010Prop35
280
     0
102
RTVSPost2010PropOp35
 70
     1
102
RTVSPost2010Prop36
280
     0
102
RTVSPost2010PropOp36
 70
     1
102
RTVSPost2010Prop37
 90
       50
102
RTVSPost2010PropOp37
 70
     1
102
RTVSPost2010Prop38
140
0.0
102
RTVSPost2010PropOp38
 70
     1
102
RTVSPost2010Prop39
140
1.0
102
RTVSPost2010PropOp39
 70
     1
102
RTVSPost2010Prop40
 90
        0
102
RTVSPost2010PropOp40
 70
     1
102
RTVSPost2010Prop41ColorIndex
 90
       18
102
RTVSPost2010Prop41ColorRGB
 90
        0
102
RTVSPost2010PropOp41
 70
     1
102
RTVSPost2010Prop42
 90
       50
102
RTVSPost2010PropOp42
 70
     1
102
RTVSPost2010Prop43
 90
        3
102
RTVSPost2010PropOp43
 70
     1
102
RTVSPost2010Prop44ColorIndex
 90
        5
102
RTVSPost2010Prop44ColorRGB
 90
      255
102
RTVSPost2010PropOp44
 70
     1
102
RTVSPost2010Prop45
280
     0
102
RTVSPost2010PropOp45
 70
     1
102
RTVSPost2010Prop46
 90
       50
102
RTVSPost2010PropOp46
 70
     1
102
RTVSPost2010Prop47
 90
       50
102
RTVSPost2010PropOp47
 70
     1
102
RTVSPost2010Prop48
 90
       50
102
RTVSPost2010PropOp48
 70
     1
102
RTVSPost2010Prop49
280
     0
102
RTVSPost2010PropOp49
 70
     1
102
RTVSPost2010Prop50
 90
       50
102
RTVSPost2010PropOp50
 70
     1
102
RTVSPost2010Prop51ColorIndex
 90
      256
102
RTVSPost2010Prop51ColorRGB
 90
-16777216
102
RTVSPost2010PropOp51
 70
     0
102
RTVSPost2010Prop52
140
1.0
102
RTVSPost2010PropOp52
 70
     0
102
RTVSPost2010Prop53
 90
        2
102
RTVSPost2010PropOp53
 70
     1
102
RTVSPost2010Prop54
  1
strokes_ogs.tif
102
RTVSPost2010PropOp54
 70
     1
102
RTVSPost2010Prop55
280
     0
102
RTVSPost2010PropOp55
 70
     1
102
RTVSPost2010Prop56
140
1.0
102
RTVSPost2010PropOp56
 70
     1
102
RTVSPost2010Prop57
140
1.0
102
RTVSPost2010PropOp57
 70
     1
  0
XRECORD
  5
277
102
{ACAD_REACTORS
330
276
102
}
330
276
100
AcDbXrecord
280
     1
102
RTVSPropertyOp0
 70
     1
102
RTVSPropertyOp1
 70
     1
102
RTVSPropertyOp2
 70
     1
102
RTVSPropertyOp3
 70
     1
102
RTVSPropertyOp4
 70
     1
102
RTVSPropertyOp5
 70
     1
102
RTVSPropertyOp6
 70
     1
102
RTVSPropertyOp7
 70
     1
102
RTVSPropertyOp8
 70
     1
102
RTVSPropertyOp9
 70
     1
102
RTVSPropertyOp10
 70
     1
102
RTVSPropertyOp11
 70
     1
102
RTVSPropertyOp12
 70
     1
102
RTVSPropertyOp13
 70
     1
102
RTVSPropertyOp14
 70
     1
102
RTVSPropertyOp15
 70
     1
102
RTVSPropertyOp16
 70
     1
102
RTVSPropertyOp17
 70
     1
102
RTVSPropertyOp18
 70
     1
102
RTVSPropertyOp19
 70
     1
102
RTVSPropertyOp20
 70
     1
102
RTVSPropertyOp21
 70
     1
102
RTVSPropertyOp22
 70
     1
102
RTVSPropertyOp23
 70
     1
102
RTVSPropertyOp24
 70
     1
102
RTVSPropertyOp25
 70
     1
102
RTVSPropertyOp26
 70
     1
102
RTVSPropertyOp27
 70
     1
102
RTVSPropertyOp28
 70
     1
102
RTVSPropertyOp29
 70
     1
102
RTVSPropertyOp30
 70
     1
102
RTVSPropertyOp31
 70
     1
102
RTVSPropertyOp32
 70
     1
102
RTVSPropertyOp33
 70
     1
102
RTVSPropertyOp34
 70
     1
102
RTVSPropertyOp35
 70
     1
102
RTVSPropertyOp36
 70
     1
102
RTVSPropertyOp37
 70
     1
102
RTVSPropertyOp38
 70
     1
102
RTVSPropertyOp39
 70
     1
102
RTVSPropertyOp40
 70
     1
102
RTVSPropertyOp41
 70
     1
102
RTVSPropertyOp42
 70
     1
102
RTVSPropertyOp43
 70
     1
102
RTVSPropertyOp44
 70
     1
102
RTVSPropertyOp45
 70
     1
102
RTVSPropertyOp46
 70
     1
102
RTVSPropertyOp47
 70
     1
102
RTVSPropertyOp48
 70
     1
102
RTVSPropertyOp49
 70
     1
102
RTVSPropertyOp50
 70
     1
102
RTVSPropertyOp51
 70
     0
102
RTVSPropertyOp52
 70
     0
102
RTVSPropertyOp53
 70
     1
102
RTVSPropertyOp54
 70
     1
102
RTVSPropertyOp55
 70
     1
102
RTVSPropertyOp56
 70
     1
102
RTVSPropertyOp57
 70
     1
102
RTVSPost2010Prop28
280
     0
102
RTVSPost2010PropOp28
 70
     1
102
RTVSPost2010Prop29
280
     1
102
RTVSPost2010PropOp29
 70
     1
102
RTVSPost2010Prop30
280
     1
102
RTVSPost2010PropOp30
 70
     1
102
RTVSPost2010Prop31
280
     0
102
RTVSPost2010PropOp31
 70
     1
102
RTVSPost2010Prop32
280
     0
102
RTVSPost2010PropOp32
 70
     1
102
RTVSPost2010Prop33
280
     0
102
RTVSPost2010PropOp33
 70
     1
102
RTVSPost2010Prop34
280
     0
102
RTVSPost2010PropOp34
 70
     1
102
RTVSPost2010Prop35
280
     0
102
RTVSPost2010PropOp35
 70
     1
102
RTVSPost2010Prop36
280
     0
102
RTVSPost2010PropOp36
 70
     1
102
RTVSPost2010Prop37
 90
       50
102
RTVSPost2010PropOp37
 70
     1
102
RTVSPost2010Prop38
140
0.0
102
RTVSPost2010PropOp38
 70
     1
102
RTVSPost2010Prop39
140
1.0
102
RTVSPost2010PropOp39
 70
     1
102
RTVSPost2010Prop40
 90
        0
102
RTVSPost2010PropOp40
 70
     1
102
RTVSPost2010Prop41ColorIndex
 90
       18
102
RTVSPost2010Prop41ColorRGB
 90
        0
102
RTVSPost2010PropOp41
 70
     1
102
RTVSPost2010Prop42
 90
       50
102
RTVSPost2010PropOp42
 70
     1
102
RTVSPost2010Prop43
 90
        3
102
RTVSPost2010PropOp43
 70
     1
102
RTVSPost2010Prop44ColorIndex
 90
        5
102
RTVSPost2010Prop44ColorRGB
 90
      255
102
RTVSPost2010PropOp44
 70
     1
102
RTVSPost2010Prop45
280
     0
102
RTVSPost2010PropOp45
 70
     1
102
RTVSPost2010Prop46
 90
       50
102
RTVSPost2010PropOp46
 70
     1
102
RTVSPost2010Prop47
 90
       50
102
RTVSPost2010PropOp47
 70
     1
102
RTVSPost2010Prop48
 90
       50
102
RTVSPost2010PropOp48
 70
     1
102
RTVSPost2010Prop49
280
     0
102
RTVSPost2010PropOp49
 70
     1
102
RTVSPost2010Prop50
 90
       50
102
RTVSPost2010PropOp50
 70
     1
102
RTVSPost2010Prop51ColorIndex
 90
      256
102
RTVSPost2010Prop51ColorRGB
 90
-16777216
102
RTVSPost2010PropOp51
 70
     0
102
RTVSPost2010Prop52
140
1.0
102
RTVSPost2010PropOp52
 70
     0
102
RTVSPost2010Prop53
 90
        2
102
RTVSPost2010PropOp53
 70
     1
102
RTVSPost2010Prop54
  1
strokes_ogs.tif
102
RTVSPost2010PropOp54
 70
     1
102
RTVSPost2010Prop55
280
     0
102
RTVSPost2010PropOp55
 70
     1
102
RTVSPost2010Prop56
140
1.0
102
RTVSPost2010PropOp56
 70
     1
102
RTVSPost2010Prop57
140
1.0
102
RTVSPost2010PropOp57
 70
     1
  0
XRECORD
  5
27F
102
{ACAD_REACTORS
330
27E
102
}
330
27E
100
AcDbXrecord
280
     1
102
RTVSPropertyOp0
 70
     1
102
RTVSPropertyOp1
 70
     1
102
RTVSPropertyOp2
 70
     1
102
RTVSPropertyOp3
 70
     1
102
RTVSPropertyOp4
 70
     1
102
RTVSPropertyOp5
 70
     1
102
RTVSPropertyOp6
 70
     1
102
RTVSPropertyOp7
 70
     1
102
RTVSPropertyOp8
 70
     1
102
RTVSPropertyOp9
 70
     1
102
RTVSPropertyOp10
 70
     1
102
RTVSPropertyOp11
 70
     1
102
RTVSPropertyOp12
 70
     1
102
RTVSPropertyOp13
 70
     1
102
RTVSPropertyOp14
 70
     1
102
RTVSPropertyOp15
 70
     1
102
RTVSPropertyOp16
 70
     1
102
RTVSPropertyOp17
 70
     1
102
RTVSPropertyOp18
 70
     1
102
RTVSPropertyOp19
 70
     1
102
RTVSPropertyOp20
 70
     1
102
RTVSPropertyOp21
 70
     1
102
RTVSPropertyOp22
 70
     1
102
RTVSPropertyOp23
 70
     1
102
RTVSPropertyOp24
 70
     1
102
RTVSPropertyOp25
 70
     1
102
RTVSPropertyOp26
 70
     1
102
RTVSPropertyOp27
 70
     1
102
RTVSPropertyOp28
 70
     1
102
RTVSPropertyOp29
 70
     1
102
RTVSPropertyOp30
 70
     1
102
RTVSPropertyOp31
 70
     1
102
RTVSPropertyOp32
 70
     1
102
RTVSPropertyOp33
 70
     1
102
RTVSPropertyOp34
 70
     1
102
RTVSPropertyOp35
 70
     1
102
RTVSPropertyOp36
 70
     1
102
RTVSPropertyOp37
 70
     1
102
RTVSPropertyOp38
 70
     1
102
RTVSPropertyOp39
 70
     1
102
RTVSPropertyOp40
 70
     1
102
RTVSPropertyOp41
 70
     1
102
RTVSPropertyOp42
 70
     1
102
RTVSPropertyOp43
 70
     1
102
RTVSPropertyOp44
 70
     1
102
RTVSPropertyOp45
 70
     1
102
RTVSPropertyOp46
 70
     1
102
RTVSPropertyOp47
 70
     1
102
RTVSPropertyOp48
 70
     1
102
RTVSPropertyOp49
 70
     1
102
RTVSPropertyOp50
 70
     1
102
RTVSPropertyOp51
 70
     0
102
RTVSPropertyOp52
 70
     0
102
RTVSPropertyOp53
 70
     1
102
RTVSPropertyOp54
 70
     1
102
RTVSPropertyOp55
 70
     1
102
RTVSPropertyOp56
 70
     1
102
RTVSPropertyOp57
 70
     1
102
RTVSPost2010Prop28
280
     0
102
RTVSPost2010PropOp28
 70
     1
102
RTVSPost2010Prop29
280
     1
102
RTVSPost2010PropOp29
 70
     1
102
RTVSPost2010Prop30
280
     1
102
RTVSPost2010PropOp30
 70
     1
102
RTVSPost2010Prop31
280
     0
102
RTVSPost2010PropOp31
 70
     1
102
RTVSPost2010Prop32
280
     0
102
RTVSPost2010PropOp32
 70
     1
102
RTVSPost2010Prop33
280
     0
102
RTVSPost2010PropOp33
 70
     1
102
RTVSPost2010Prop34
280
     0
102
RTVSPost2010PropOp34
 70
     1
102
RTVSPost2010Prop35
280
     0
102
RTVSPost2010PropOp35
 70
     1
102
RTVSPost2010Prop36
280
     0
102
RTVSPost2010PropOp36
 70
     1
102
RTVSPost2010Prop37
 90
       50
102
RTVSPost2010PropOp37
 70
     1
102
RTVSPost2010Prop38
140
0.0
102
RTVSPost2010PropOp38
 70
     1
102
RTVSPost2010Prop39
140
1.0
102
RTVSPost2010PropOp39
 70
     1
102
RTVSPost2010Prop40
 90
        0
102
RTVSPost2010PropOp40
 70
     1
102
RTVSPost2010Prop41ColorIndex
 90
       18
102
RTVSPost2010Prop41ColorRGB
 90
        0
102
RTVSPost2010PropOp41
 70
     1
102
RTVSPost2010Prop42
 90
       50
102
RTVSPost2010PropOp42
 70
     1
102
RTVSPost2010Prop43
 90
        3
102
RTVSPost2010PropOp43
 70
     1
102
RTVSPost2010Prop44ColorIndex
 90
        5
102
RTVSPost2010Prop44ColorRGB
 90
      255
102
RTVSPost2010PropOp44
 70
     1
102
RTVSPost2010Prop45
280
     0
102
RTVSPost2010PropOp45
 70
     1
102
RTVSPost2010Prop46
 90
       50
102
RTVSPost2010PropOp46
 70
     1
102
RTVSPost2010Prop47
 90
       50
102
RTVSPost2010PropOp47
 70
     1
102
RTVSPost2010Prop48
 90
       50
102
RTVSPost2010PropOp48
 70
     1
102
RTVSPost2010Prop49
280
     0
102
RTVSPost2010PropOp49
 70
     1
102
RTVSPost2010Prop50
 90
       50
102
RTVSPost2010PropOp50
 70
     1
102
RTVSPost2010Prop51ColorIndex
 90
      256
102
RTVSPost2010Prop51ColorRGB
 90
-16777216
102
RTVSPost2010PropOp51
 70
     0
102
RTVSPost2010Prop52
140
1.0
102
RTVSPost2010PropOp52
 70
     0
102
RTVSPost2010Prop53
 90
        2
102
RTVSPost2010PropOp53
 70
     1
102
RTVSPost2010Prop54
  1
strokes_ogs.tif
102
RTVSPost2010PropOp54
 70
     1
102
RTVSPost2010Prop55
280
     0
102
RTVSPost2010PropOp55
 70
     1
102
RTVSPost2010Prop56
140
1.0
102
RTVSPost2010PropOp56
 70
     1
102
RTVSPost2010Prop57
140
1.0
102
RTVSPost2010PropOp57
 70
     1
  0
XRECORD
  5
273
102
{ACAD_REACTORS
330
272
102
}
330
272
100
AcDbXrecord
280
     1
102
RTVSPropertyOp0
 70
     1
102
RTVSPropertyOp1
 70
     1
102
RTVSPropertyOp2
 70
     1
102
RTVSPropertyOp3
 70
     1
102
RTVSPropertyOp4
 70
     1
102
RTVSPropertyOp5
 70
     1
102
RTVSPropertyOp6
 70
     1
102
RTVSPropertyOp7
 70
     1
102
RTVSPropertyOp8
 70
     1
102
RTVSPropertyOp9
 70
     1
102
RTVSPropertyOp10
 70
     1
102
RTVSPropertyOp11
 70
     1
102
RTVSPropertyOp12
 70
     1
102
RTVSPropertyOp13
 70
     1
102
RTVSPropertyOp14
 70
     1
102
RTVSPropertyOp15
 70
     1
102
RTVSPropertyOp16
 70
     1
102
RTVSPropertyOp17
 70
     1
102
RTVSPropertyOp18
 70
     1
102
RTVSPropertyOp19
 70
     1
102
RTVSPropertyOp20
 70
     1
102
RTVSPropertyOp21
 70
     1
102
RTVSPropertyOp22
 70
     1
102
RTVSPropertyOp23
 70
     1
102
RTVSPropertyOp24
 70
     1
102
RTVSPropertyOp25
 70
     1
102
RTVSPropertyOp26
 70
     1
102
RTVSPropertyOp27
 70
     1
102
RTVSPropertyOp28
 70
     1
102
RTVSPropertyOp29
 70
     1
102
RTVSPropertyOp30
 70
     1
102
RTVSPropertyOp31
 70
     1
102
RTVSPropertyOp32
 70
     1
102
RTVSPropertyOp33
 70
     1
102
RTVSPropertyOp34
 70
     1
102
RTVSPropertyOp35
 70
     1
102
RTVSPropertyOp36
 70
     1
102
RTVSPropertyOp37
 70
     1
102
RTVSPropertyOp38
 70
     1
102
RTVSPropertyOp39
 70
     1
102
RTVSPropertyOp40
 70
     1
102
RTVSPropertyOp41
 70
     1
102
RTVSPropertyOp42
 70
     1
102
RTVSPropertyOp43
 70
     1
102
RTVSPropertyOp44
 70
     1
102
RTVSPropertyOp45
 70
     1
102
RTVSPropertyOp46
 70
     1
102
RTVSPropertyOp47
 70
     1
102
RTVSPropertyOp48
 70
     1
102
RTVSPropertyOp49
 70
     1
102
RTVSPropertyOp50
 70
     1
102
RTVSPropertyOp51
 70
     0
102
RTVSPropertyOp52
 70
     0
102
RTVSPropertyOp53
 70
     1
102
RTVSPropertyOp54
 70
     1
102
RTVSPropertyOp55
 70
     1
102
RTVSPropertyOp56
 70
     1
102
RTVSPropertyOp57
 70
     1
102
RTVSPost2010Prop28
280
     0
102
RTVSPost2010PropOp28
 70
     1
102
RTVSPost2010Prop29
280
     1
102
RTVSPost2010PropOp29
 70
     1
102
RTVSPost2010Prop30
280
     1
102
RTVSPost2010PropOp30
 70
     1
102
RTVSPost2010Prop31
280
     0
102
RTVSPost2010PropOp31
 70
     1
102
RTVSPost2010Prop32
280
     0
102
RTVSPost2010PropOp32
 70
     1
102
RTVSPost2010Prop33
280
     0
102
RTVSPost2010PropOp33
 70
     1
102
RTVSPost2010Prop34
280
     0
102
RTVSPost2010PropOp34
 70
     1
102
RTVSPost2010Prop35
280
     0
102
RTVSPost2010PropOp35
 70
     1
102
RTVSPost2010Prop36
280
     0
102
RTVSPost2010PropOp36
 70
     1
102
RTVSPost2010Prop37
 90
       50
102
RTVSPost2010PropOp37
 70
     1
102
RTVSPost2010Prop38
140
0.0
102
RTVSPost2010PropOp38
 70
     1
102
RTVSPost2010Prop39
140
1.0
102
RTVSPost2010PropOp39
 70
     1
102
RTVSPost2010Prop40
 90
        0
102
RTVSPost2010PropOp40
 70
     1
102
RTVSPost2010Prop41ColorIndex
 90
       18
102
RTVSPost2010Prop41ColorRGB
 90
        0
102
RTVSPost2010PropOp41
 70
     1
102
RTVSPost2010Prop42
 90
       50
102
RTVSPost2010PropOp42
 70
     1
102
RTVSPost2010Prop43
 90
        3
102
RTVSPost2010PropOp43
 70
     1
102
RTVSPost2010Prop44ColorIndex
 90
        5
102
RTVSPost2010Prop44ColorRGB
 90
      255
102
RTVSPost2010PropOp44
 70
     1
102
RTVSPost2010Prop45
280
     0
102
RTVSPost2010PropOp45
 70
     1
102
RTVSPost2010Prop46
 90
       50
102
RTVSPost2010PropOp46
 70
     1
102
RTVSPost2010Prop47
 90
       50
102
RTVSPost2010PropOp47
 70
     1
102
RTVSPost2010Prop48
 90
       50
102
RTVSPost2010PropOp48
 70
     1
102
RTVSPost2010Prop49
280
     0
102
RTVSPost2010PropOp49
 70
     1
102
RTVSPost2010Prop50
 90
       50
102
RTVSPost2010PropOp50
 70
     1
102
RTVSPost2010Prop51ColorIndex
 90
      256
102
RTVSPost2010Prop51ColorRGB
 90
-16777216
102
RTVSPost2010PropOp51
 70
     0
102
RTVSPost2010Prop52
140
1.0
102
RTVSPost2010PropOp52
 70
     0
102
RTVSPost2010Prop53
 90
        2
102
RTVSPost2010PropOp53
 70
     1
102
RTVSPost2010Prop54
  1
strokes_ogs.tif
102
RTVSPost2010PropOp54
 70
     1
102
RTVSPost2010Prop55
280
     0
102
RTVSPost2010PropOp55
 70
     1
102
RTVSPost2010Prop56
140
1.0
102
RTVSPost2010PropOp56
 70
     1
102
RTVSPost2010Prop57
140
1.0
102
RTVSPost2010PropOp57
 70
     1
  0
XRECORD
  5
275
102
{ACAD_REACTORS
330
274
102
}
330
274
100
AcDbXrecord
280
     1
102
RTVSPropertyOp0
 70
     1
102
RTVSPropertyOp1
 70
     1
102
RTVSPropertyOp2
 70
     1
102
RTVSPropertyOp3
 70
     1
102
RTVSPropertyOp4
 70
     1
102
RTVSPropertyOp5
 70
     1
102
RTVSPropertyOp6
 70
     1
102
RTVSPropertyOp7
 70
     1
102
RTVSPropertyOp8
 70
     1
102
RTVSPropertyOp9
 70
     1
102
RTVSPropertyOp10
 70
     1
102
RTVSPropertyOp11
 70
     1
102
RTVSPropertyOp12
 70
     1
102
RTVSPropertyOp13
 70
     1
102
RTVSPropertyOp14
 70
     1
102
RTVSPropertyOp15
 70
     1
102
RTVSPropertyOp16
 70
     1
102
RTVSPropertyOp17
 70
     1
102
RTVSPropertyOp18
 70
     1
102
RTVSPropertyOp19
 70
     1
102
RTVSPropertyOp20
 70
     1
102
RTVSPropertyOp21
 70
     1
102
RTVSPropertyOp22
 70
     1
102
RTVSPropertyOp23
 70
     1
102
RTVSPropertyOp24
 70
     1
102
RTVSPropertyOp25
 70
     1
102
RTVSPropertyOp26
 70
     1
102
RTVSPropertyOp27
 70
     1
102
RTVSPropertyOp28
 70
     1
102
RTVSPropertyOp29
 70
     1
102
RTVSPropertyOp30
 70
     1
102
RTVSPropertyOp31
 70
     1
102
RTVSPropertyOp32
 70
     1
102
RTVSPropertyOp33
 70
     1
102
RTVSPropertyOp34
 70
     1
102
RTVSPropertyOp35
 70
     1
102
RTVSPropertyOp36
 70
     1
102
RTVSPropertyOp37
 70
     1
102
RTVSPropertyOp38
 70
     1
102
RTVSPropertyOp39
 70
     1
102
RTVSPropertyOp40
 70
     1
102
RTVSPropertyOp41
 70
     1
102
RTVSPropertyOp42
 70
     1
102
RTVSPropertyOp43
 70
     1
102
RTVSPropertyOp44
 70
     1
102
RTVSPropertyOp45
 70
     1
102
RTVSPropertyOp46
 70
     1
102
RTVSPropertyOp47
 70
     1
102
RTVSPropertyOp48
 70
     1
102
RTVSPropertyOp49
 70
     1
102
RTVSPropertyOp50
 70
     1
102
RTVSPropertyOp51
 70
     0
102
RTVSPropertyOp52
 70
     0
102
RTVSPropertyOp53
 70
     1
102
RTVSPropertyOp54
 70
     1
102
RTVSPropertyOp55
 70
     1
102
RTVSPropertyOp56
 70
     1
102
RTVSPropertyOp57
 70
     1
102
RTVSPost2010Prop28
280
     0
102
RTVSPost2010PropOp28
 70
     1
102
RTVSPost2010Prop29
280
     1
102
RTVSPost2010PropOp29
 70
     1
102
RTVSPost2010Prop30
280
     1
102
RTVSPost2010PropOp30
 70
     1
102
RTVSPost2010Prop31
280
     0
102
RTVSPost2010PropOp31
 70
     1
102
RTVSPost2010Prop32
280
     0
102
RTVSPost2010PropOp32
 70
     1
102
RTVSPost2010Prop33
280
     0
102
RTVSPost2010PropOp33
 70
     1
102
RTVSPost2010Prop34
280
     0
102
RTVSPost2010PropOp34
 70
     1
102
RTVSPost2010Prop35
280
     0
102
RTVSPost2010PropOp35
 70
     1
102
RTVSPost2010Prop36
280
     0
102
RTVSPost2010PropOp36
 70
     1
102
RTVSPost2010Prop37
 90
       50
102
RTVSPost2010PropOp37
 70
     1
102
RTVSPost2010Prop38
140
0.0
102
RTVSPost2010PropOp38
 70
     1
102
RTVSPost2010Prop39
140
1.0
102
RTVSPost2010PropOp39
 70
     1
102
RTVSPost2010Prop40
 90
        0
102
RTVSPost2010PropOp40
 70
     1
102
RTVSPost2010Prop41ColorIndex
 90
       18
102
RTVSPost2010Prop41ColorRGB
 90
        0
102
RTVSPost2010PropOp41
 70
     1
102
RTVSPost2010Prop42
 90
       50
102
RTVSPost2010PropOp42
 70
     1
102
RTVSPost2010Prop43
 90
        3
102
RTVSPost2010PropOp43
 70
     1
102
RTVSPost2010Prop44ColorIndex
 90
        5
102
RTVSPost2010Prop44ColorRGB
 90
      255
102
RTVSPost2010PropOp44
 70
     1
102
RTVSPost2010Prop45
280
     0
102
RTVSPost2010PropOp45
 70
     1
102
RTVSPost2010Prop46
 90
       50
102
RTVSPost2010PropOp46
 70
     1
102
RTVSPost2010Prop47
 90
       50
102
RTVSPost2010PropOp47
 70
     1
102
RTVSPost2010Prop48
 90
       50
102
RTVSPost2010PropOp48
 70
     1
102
RTVSPost2010Prop49
280
     0
102
RTVSPost2010PropOp49
 70
     1
102
RTVSPost2010Prop50
 90
       50
102
RTVSPost2010PropOp50
 70
     1
102
RTVSPost2010Prop51ColorIndex
 90
      256
102
RTVSPost2010Prop51ColorRGB
 90
-16777216
102
RTVSPost2010PropOp51
 70
     0
102
RTVSPost2010Prop52
140
1.0
102
RTVSPost2010PropOp52
 70
     0
102
RTVSPost2010Prop53
 90
        2
102
RTVSPost2010PropOp53
 70
     1
102
RTVSPost2010Prop54
  1
strokes_ogs.tif
102
RTVSPost2010PropOp54
 70
     1
102
RTVSPost2010Prop55
280
     0
102
RTVSPost2010PropOp55
 70
     1
102
RTVSPost2010Prop56
140
1.0
102
RTVSPost2010PropOp56
 70
     1
102
RTVSPost2010Prop57
140
1.0
102
RTVSPost2010PropOp57
 70
     1
  0
XRECORD
  5
285
102
{ACAD_REACTORS
330
284
102
}
330
284
100
AcDbXrecord
280
     1
102
RTVSPropertyOp0
 70
     0
102
RTVSPropertyOp1
 70
     0
102
RTVSPropertyOp2
 70
     0
102
RTVSPropertyOp3
 70
     0
102
RTVSPropertyOp4
 70
     0
102
RTVSPropertyOp5
 70
     0
102
RTVSPropertyOp6
 70
     0
102
RTVSPropertyOp7
 70
     0
102
RTVSPropertyOp8
 70
     0
102
RTVSPropertyOp9
 70
     0
102
RTVSPropertyOp10
 70
     0
102
RTVSPropertyOp11
 70
     0
102
RTVSPropertyOp12
 70
     0
102
RTVSPropertyOp13
 70
     0
102
RTVSPropertyOp14
 70
     2
102
RTVSPropertyOp15
 70
     0
102
RTVSPropertyOp16
 70
     0
102
RTVSPropertyOp17
 70
     0
102
RTVSPropertyOp18
 70
     0
102
RTVSPropertyOp19
 70
     0
102
RTVSPropertyOp20
 70
     0
102
RTVSPropertyOp21
 70
     0
102
RTVSPropertyOp22
 70
     0
102
RTVSPropertyOp23
 70
     0
102
RTVSPropertyOp24
 70
     0
102
RTVSPropertyOp25
 70
     0
102
RTVSPropertyOp26
 70
     0
102
RTVSPropertyOp27
 70
     0
102
RTVSPropertyOp28
 70
     0
102
RTVSPropertyOp29
 70
     0
102
RTVSPropertyOp30
 70
     0
102
RTVSPropertyOp31
 70
     0
102
RTVSPropertyOp32
 70
     0
102
RTVSPropertyOp33
 70
     0
102
RTVSPropertyOp34
 70
     0
102
RTVSPropertyOp35
 70
     0
102
RTVSPropertyOp36
 70
     0
102
RTVSPropertyOp37
 70
     0
102
RTVSPropertyOp38
 70
     0
102
RTVSPropertyOp39
 70
     0
102
RTVSPropertyOp40
 70
     0
102
RTVSPropertyOp41
 70
     0
102
RTVSPropertyOp42
 70
     0
102
RTVSPropertyOp43
 70
     0
102
RTVSPropertyOp44
 70
     0
102
RTVSPropertyOp45
 70
     0
102
RTVSPropertyOp46
 70
     0
102
RTVSPropertyOp47
 70
     0
102
RTVSPropertyOp48
 70
     0
102
RTVSPropertyOp49
 70
     0
102
RTVSPropertyOp50
 70
     0
102
RTVSPropertyOp51
 70
     0
102
RTVSPropertyOp52
 70
     0
102
RTVSPropertyOp53
 70
     0
102
RTVSPropertyOp54
 70
     0
102
RTVSPropertyOp55
 70
     0
102
RTVSPropertyOp56
 70
     0
102
RTVSPropertyOp57
 70
     0
102
RTVSPost2010Prop28
280
     0
102
RTVSPost2010PropOp28
 70
     0
102
RTVSPost2010Prop29
280
     1
102
RTVSPost2010PropOp29
 70
     0
102
RTVSPost2010Prop30
280
     1
102
RTVSPost2010PropOp30
 70
     0
102
RTVSPost2010Prop31
280
     0
102
RTVSPost2010PropOp31
 70
     0
102
RTVSPost2010Prop32
280
     0
102
RTVSPost2010PropOp32
 70
     0
102
RTVSPost2010Prop33
280
     0
102
RTVSPost2010PropOp33
 70
     0
102
RTVSPost2010Prop34
280
     0
102
RTVSPost2010PropOp34
 70
     0
102
RTVSPost2010Prop35
280
     0
102
RTVSPost2010PropOp35
 70
     0
102
RTVSPost2010Prop36
280
     0
102
RTVSPost2010PropOp36
 70
     0
102
RTVSPost2010Prop37
 90
       50
102
RTVSPost2010PropOp37
 70
     0
102
RTVSPost2010Prop38
140
0.0
102
RTVSPost2010PropOp38
 70
     0
102
RTVSPost2010Prop39
140
1.0
102
RTVSPost2010PropOp39
 70
     0
102
RTVSPost2010Prop40
 90
        0
102
RTVSPost2010PropOp40
 70
     0
102
RTVSPost2010Prop41ColorIndex
 90
       18
102
RTVSPost2010Prop41ColorRGB
 90
        0
102
RTVSPost2010PropOp41
 70
     0
102
RTVSPost2010Prop42
 90
       50
102
RTVSPost2010PropOp42
 70
     0
102
RTVSPost2010Prop43
 90
        3
102
RTVSPost2010PropOp43
 70
     0
102
RTVSPost2010Prop44ColorIndex
 90
        5
102
RTVSPost2010Prop44ColorRGB
 90
      255
102
RTVSPost2010PropOp44
 70
     0
102
RTVSPost2010Prop45
280
     0
102
RTVSPost2010PropOp45
 70
     0
102
RTVSPost2010Prop46
 90
       50
102
RTVSPost2010PropOp46
 70
     0
102
RTVSPost2010Prop47
 90
       50
102
RTVSPost2010PropOp47
 70
     0
102
RTVSPost2010Prop48
 90
       50
102
RTVSPost2010PropOp48
 70
     0
102
RTVSPost2010Prop49
280
     0
102
RTVSPost2010PropOp49
 70
     0
102
RTVSPost2010Prop50
 90
       50
102
RTVSPost2010PropOp50
 70
     0
102
RTVSPost2010Prop51ColorIndex
 90
      256
102
RTVSPost2010Prop51ColorRGB
 90
-16777216
102
RTVSPost2010PropOp51
 70
     0
102
RTVSPost2010Prop52
140
1.0
102
RTVSPost2010PropOp52
 70
     0
102
RTVSPost2010Prop53
 90
        2
102
RTVSPost2010PropOp53
 70
     0
102
RTVSPost2010Prop54
  1
strokes_ogs.tif
102
RTVSPost2010PropOp54
 70
     0
102
RTVSPost2010Prop55
280
     0
102
RTVSPost2010PropOp55
 70
     0
102
RTVSPost2010Prop56
140
1.0
102
RTVSPost2010PropOp56
 70
     0
102
RTVSPost2010Prop57
140
1.0
102
RTVSPost2010PropOp57
 70
     0
  0
XRECORD
  5
27D
102
{ACAD_REACTORS
330
27C
102
}
330
27C
100
AcDbXrecord
280
     1
102
RTVSPropertyOp0
 70
     1
102
RTVSPropertyOp1
 70
     1
102
RTVSPropertyOp2
 70
     1
102
RTVSPropertyOp3
 70
     1
102
RTVSPropertyOp4
 70
     1
102
RTVSPropertyOp5
 70
     1
102
RTVSPropertyOp6
 70
     1
102
RTVSPropertyOp7
 70
     1
102
RTVSPropertyOp8
 70
     1
102
RTVSPropertyOp9
 70
     1
102
RTVSPropertyOp10
 70
     1
102
RTVSPropertyOp11
 70
     1
102
RTVSPropertyOp12
 70
     1
102
RTVSPropertyOp13
 70
     1
102
RTVSPropertyOp14
 70
     1
102
RTVSPropertyOp15
 70
     1
102
RTVSPropertyOp16
 70
     1
102
RTVSPropertyOp17
 70
     1
102
RTVSPropertyOp18
 70
     1
102
RTVSPropertyOp19
 70
     1
102
RTVSPropertyOp20
 70
     1
102
RTVSPropertyOp21
 70
     1
102
RTVSPropertyOp22
 70
     1
102
RTVSPropertyOp23
 70
     1
102
RTVSPropertyOp24
 70
     1
102
RTVSPropertyOp25
 70
     1
102
RTVSPropertyOp26
 70
     1
102
RTVSPropertyOp27
 70
     1
102
RTVSPropertyOp28
 70
     1
102
RTVSPropertyOp29
 70
     1
102
RTVSPropertyOp30
 70
     1
102
RTVSPropertyOp31
 70
     1
102
RTVSPropertyOp32
 70
     1
102
RTVSPropertyOp33
 70
     1
102
RTVSPropertyOp34
 70
     1
102
RTVSPropertyOp35
 70
     1
102
RTVSPropertyOp36
 70
     1
102
RTVSPropertyOp37
 70
     1
102
RTVSPropertyOp38
 70
     1
102
RTVSPropertyOp39
 70
     1
102
RTVSPropertyOp40
 70
     1
102
RTVSPropertyOp41
 70
     1
102
RTVSPropertyOp42
 70
     1
102
RTVSPropertyOp43
 70
     1
102
RTVSPropertyOp44
 70
     1
102
RTVSPropertyOp45
 70
     1
102
RTVSPropertyOp46
 70
     1
102
RTVSPropertyOp47
 70
     1
102
RTVSPropertyOp48
 70
     1
102
RTVSPropertyOp49
 70
     1
102
RTVSPropertyOp50
 70
     1
102
RTVSPropertyOp51
 70
     0
102
RTVSPropertyOp52
 70
     0
102
RTVSPropertyOp53
 70
     1
102
RTVSPropertyOp54
 70
     1
102
RTVSPropertyOp55
 70
     1
102
RTVSPropertyOp56
 70
     1
102
RTVSPropertyOp57
 70
     1
102
RTVSPost2010Prop28
280
     0
102
RTVSPost2010PropOp28
 70
     1
102
RTVSPost2010Prop29
280
     1
102
RTVSPost2010PropOp29
 70
     1
102
RTVSPost2010Prop30
280
     1
102
RTVSPost2010PropOp30
 70
     1
102
RTVSPost2010Prop31
280
     0
102
RTVSPost2010PropOp31
 70
     1
102
RTVSPost2010Prop32
280
     0
102
RTVSPost2010PropOp32
 70
     1
102
RTVSPost2010Prop33
280
     0
102
RTVSPost2010PropOp33
 70
     1
102
RTVSPost2010Prop34
280
     0
102
RTVSPost2010PropOp34
 70
     1
102
RTVSPost2010Prop35
280
     0
102
RTVSPost2010PropOp35
 70
     1
102
RTVSPost2010Prop36
280
     0
102
RTVSPost2010PropOp36
 70
     1
102
RTVSPost2010Prop37
 90
       50
102
RTVSPost2010PropOp37
 70
     1
102
RTVSPost2010Prop38
140
0.0
102
RTVSPost2010PropOp38
 70
     1
102
RTVSPost2010Prop39
140
1.0
102
RTVSPost2010PropOp39
 70
     1
102
RTVSPost2010Prop40
 90
        0
102
RTVSPost2010PropOp40
 70
     1
102
RTVSPost2010Prop41ColorIndex
 90
       18
102
RTVSPost2010Prop41ColorRGB
 90
        0
102
RTVSPost2010PropOp41
 70
     1
102
RTVSPost2010Prop42
 90
       50
102
RTVSPost2010PropOp42
 70
     1
102
RTVSPost2010Prop43
 90
        3
102
RTVSPost2010PropOp43
 70
     1
102
RTVSPost2010Prop44ColorIndex
 90
        5
102
RTVSPost2010Prop44ColorRGB
 90
      255
102
RTVSPost2010PropOp44
 70
     1
102
RTVSPost2010Prop45
280
     0
102
RTVSPost2010PropOp45
 70
     1
102
RTVSPost2010Prop46
 90
       50
102
RTVSPost2010PropOp46
 70
     1
102
RTVSPost2010Prop47
 90
       50
102
RTVSPost2010PropOp47
 70
     1
102
RTVSPost2010Prop48
 90
       50
102
RTVSPost2010PropOp48
 70
     1
102
RTVSPost2010Prop49
280
     0
102
RTVSPost2010PropOp49
 70
     1
102
RTVSPost2010Prop50
 90
       50
102
RTVSPost2010PropOp50
 70
     1
102
RTVSPost2010Prop51ColorIndex
 90
      256
102
RTVSPost2010Prop51ColorRGB
 90
-16777216
102
RTVSPost2010PropOp51
 70
     0
102
RTVSPost2010Prop52
140
1.0
102
RTVSPost2010PropOp52
 70
     0
102
RTVSPost2010Prop53
 90
        2
102
RTVSPost2010PropOp53
 70
     1
102
RTVSPost2010Prop54
  1
strokes_ogs.tif
102
RTVSPost2010PropOp54
 70
     1
102
RTVSPost2010Prop55
280
     0
102
RTVSPost2010PropOp55
 70
     1
102
RTVSPost2010Prop56
140
1.0
102
RTVSPost2010PropOp56
 70
     1
102
RTVSPost2010Prop57
140
1.0
102
RTVSPost2010PropOp57
 70
     1
  0
XRECORD
  5
261
102
{ACAD_REACTORS
330
260
102
}
330
260
100
AcDbXrecord
280
     1
102
RTVSPropertyOp0
 70
     1
102
RTVSPropertyOp1
 70
     1
102
RTVSPropertyOp2
 70
     1
102
RTVSPropertyOp3
 70
     1
102
RTVSPropertyOp4
 70
     1
102
RTVSPropertyOp5
 70
     1
102
RTVSPropertyOp6
 70
     1
102
RTVSPropertyOp7
 70
     1
102
RTVSPropertyOp8
 70
     1
102
RTVSPropertyOp9
 70
     1
102
RTVSPropertyOp10
 70
     1
102
RTVSPropertyOp11
 70
     1
102
RTVSPropertyOp12
 70
     1
102
RTVSPropertyOp13
 70
     1
102
RTVSPropertyOp14
 70
     1
102
RTVSPropertyOp15
 70
     1
102
RTVSPropertyOp16
 70
     1
102
RTVSPropertyOp17
 70
     1
102
RTVSPropertyOp18
 70
     1
102
RTVSPropertyOp19
 70
     1
102
RTVSPropertyOp20
 70
     1
102
RTVSPropertyOp21
 70
     1
102
RTVSPropertyOp22
 70
     1
102
RTVSPropertyOp23
 70
     1
102
RTVSPropertyOp24
 70
     1
102
RTVSPropertyOp25
 70
     1
102
RTVSPropertyOp26
 70
     1
102
RTVSPropertyOp27
 70
     1
102
RTVSPropertyOp28
 70
     1
102
RTVSPropertyOp29
 70
     1
102
RTVSPropertyOp30
 70
     1
102
RTVSPropertyOp31
 70
     1
102
RTVSPropertyOp32
 70
     1
102
RTVSPropertyOp33
 70
     1
102
RTVSPropertyOp34
 70
     1
102
RTVSPropertyOp35
 70
     1
102
RTVSPropertyOp36
 70
     1
102
RTVSPropertyOp37
 70
     1
102
RTVSPropertyOp38
 70
     1
102
RTVSPropertyOp39
 70
     1
102
RTVSPropertyOp40
 70
     1
102
RTVSPropertyOp41
 70
     1
102
RTVSPropertyOp42
 70
     1
102
RTVSPropertyOp43
 70
     1
102
RTVSPropertyOp44
 70
     1
102
RTVSPropertyOp45
 70
     1
102
RTVSPropertyOp46
 70
     1
102
RTVSPropertyOp47
 70
     1
102
RTVSPropertyOp48
 70
     1
102
RTVSPropertyOp49
 70
     1
102
RTVSPropertyOp50
 70
     1
102
RTVSPropertyOp51
 70
     0
102
RTVSPropertyOp52
 70
     0
102
RTVSPropertyOp53
 70
     1
102
RTVSPropertyOp54
 70
     1
102
RTVSPropertyOp55
 70
     1
102
RTVSPropertyOp56
 70
     1
102
RTVSPropertyOp57
 70
     1
102
RTVSPost2010Prop28
280
     0
102
RTVSPost2010PropOp28
 70
     1
102
RTVSPost2010Prop29
280
     1
102
RTVSPost2010PropOp29
 70
     1
102
RTVSPost2010Prop30
280
     1
102
RTVSPost2010PropOp30
 70
     1
102
RTVSPost2010Prop31
280
     0
102
RTVSPost2010PropOp31
 70
     1
102
RTVSPost2010Prop32
280
     0
102
RTVSPost2010PropOp32
 70
     1
102
RTVSPost2010Prop33
280
     0
102
RTVSPost2010PropOp33
 70
     1
102
RTVSPost2010Prop34
280
     0
102
RTVSPost2010PropOp34
 70
     1
102
RTVSPost2010Prop35
280
     0
102
RTVSPost2010PropOp35
 70
     1
102
RTVSPost2010Prop36
280
     0
102
RTVSPost2010PropOp36
 70
     1
102
RTVSPost2010Prop37
 90
       50
102
RTVSPost2010PropOp37
 70
     1
102
RTVSPost2010Prop38
140
0.0
102
RTVSPost2010PropOp38
 70
     1
102
RTVSPost2010Prop39
140
1.0
102
RTVSPost2010PropOp39
 70
     1
102
RTVSPost2010Prop40
 90
        0
102
RTVSPost2010PropOp40
 70
     1
102
RTVSPost2010Prop41ColorIndex
 90
       18
102
RTVSPost2010Prop41ColorRGB
 90
        0
102
RTVSPost2010PropOp41
 70
     1
102
RTVSPost2010Prop42
 90
       50
102
RTVSPost2010PropOp42
 70
     1
102
RTVSPost2010Prop43
 90
        3
102
RTVSPost2010PropOp43
 70
     1
102
RTVSPost2010Prop44ColorIndex
 90
        5
102
RTVSPost2010Prop44ColorRGB
 90
      255
102
RTVSPost2010PropOp44
 70
     1
102
RTVSPost2010Prop45
280
     0
102
RTVSPost2010PropOp45
 70
     1
102
RTVSPost2010Prop46
 90
       50
102
RTVSPost2010PropOp46
 70
     1
102
RTVSPost2010Prop47
 90
       50
102
RTVSPost2010PropOp47
 70
     1
102
RTVSPost2010Prop48
 90
       50
102
RTVSPost2010PropOp48
 70
     1
102
RTVSPost2010Prop49
280
     0
102
RTVSPost2010PropOp49
 70
     1
102
RTVSPost2010Prop50
 90
       50
102
RTVSPost2010PropOp50
 70
     1
102
RTVSPost2010Prop51ColorIndex
 90
      256
102
RTVSPost2010Prop51ColorRGB
 90
-16777216
102
RTVSPost2010PropOp51
 70
     0
102
RTVSPost2010Prop52
140
1.0
102
RTVSPost2010PropOp52
 70
     0
102
RTVSPost2010Prop53
 90
        2
102
RTVSPost2010PropOp53
 70
     1
102
RTVSPost2010Prop54
  1
strokes_ogs.tif
102
RTVSPost2010PropOp54
 70
     1
102
RTVSPost2010Prop55
280
     0
102
RTVSPost2010PropOp55
 70
     1
102
RTVSPost2010Prop56
140
1.0
102
RTVSPost2010PropOp56
 70
     1
102
RTVSPost2010Prop57
140
1.0
102
RTVSPost2010PropOp57
 70
     1
  0
XRECORD
  5
263
102
{ACAD_REACTORS
330
262
102
}
330
262
100
AcDbXrecord
280
     1
102
RTVSPropertyOp0
 70
     1
102
RTVSPropertyOp1
 70
     1
102
RTVSPropertyOp2
 70
     1
102
RTVSPropertyOp3
 70
     1
102
RTVSPropertyOp4
 70
     1
102
RTVSPropertyOp5
 70
     1
102
RTVSPropertyOp6
 70
     1
102
RTVSPropertyOp7
 70
     1
102
RTVSPropertyOp8
 70
     1
102
RTVSPropertyOp9
 70
     1
102
RTVSPropertyOp10
 70
     1
102
RTVSPropertyOp11
 70
     1
102
RTVSPropertyOp12
 70
     1
102
RTVSPropertyOp13
 70
     1
102
RTVSPropertyOp14
 70
     1
102
RTVSPropertyOp15
 70
     1
102
RTVSPropertyOp16
 70
     1
102
RTVSPropertyOp17
 70
     1
102
RTVSPropertyOp18
 70
     1
102
RTVSPropertyOp19
 70
     1
102
RTVSPropertyOp20
 70
     1
102
RTVSPropertyOp21
 70
     1
102
RTVSPropertyOp22
 70
     1
102
RTVSPropertyOp23
 70
     1
102
RTVSPropertyOp24
 70
     1
102
RTVSPropertyOp25
 70
     1
102
RTVSPropertyOp26
 70
     1
102
RTVSPropertyOp27
 70
     1
102
RTVSPropertyOp28
 70
     1
102
RTVSPropertyOp29
 70
     1
102
RTVSPropertyOp30
 70
     1
102
RTVSPropertyOp31
 70
     1
102
RTVSPropertyOp32
 70
     1
102
RTVSPropertyOp33
 70
     1
102
RTVSPropertyOp34
 70
     1
102
RTVSPropertyOp35
 70
     1
102
RTVSPropertyOp36
 70
     1
102
RTVSPropertyOp37
 70
     1
102
RTVSPropertyOp38
 70
     1
102
RTVSPropertyOp39
 70
     1
102
RTVSPropertyOp40
 70
     1
102
RTVSPropertyOp41
 70
     1
102
RTVSPropertyOp42
 70
     1
102
RTVSPropertyOp43
 70
     1
102
RTVSPropertyOp44
 70
     1
102
RTVSPropertyOp45
 70
     1
102
RTVSPropertyOp46
 70
     1
102
RTVSPropertyOp47
 70
     1
102
RTVSPropertyOp48
 70
     1
102
RTVSPropertyOp49
 70
     1
102
RTVSPropertyOp50
 70
     1
102
RTVSPropertyOp51
 70
     0
102
RTVSPropertyOp52
 70
     0
102
RTVSPropertyOp53
 70
     1
102
RTVSPropertyOp54
 70
     1
102
RTVSPropertyOp55
 70
     1
102
RTVSPropertyOp56
 70
     1
102
RTVSPropertyOp57
 70
     1
102
RTVSPost2010Prop28
280
     0
102
RTVSPost2010PropOp28
 70
     1
102
RTVSPost2010Prop29
280
     1
102
RTVSPost2010PropOp29
 70
     1
102
RTVSPost2010Prop30
280
     1
102
RTVSPost2010PropOp30
 70
     1
102
RTVSPost2010Prop31
280
     0
102
RTVSPost2010PropOp31
 70
     1
102
RTVSPost2010Prop32
280
     0
102
RTVSPost2010PropOp32
 70
     1
102
RTVSPost2010Prop33
280
     0
102
RTVSPost2010PropOp33
 70
     1
102
RTVSPost2010Prop34
280
     0
102
RTVSPost2010PropOp34
 70
     1
102
RTVSPost2010Prop35
280
     0
102
RTVSPost2010PropOp35
 70
     1
102
RTVSPost2010Prop36
280
     0
102
RTVSPost2010PropOp36
 70
     1
102
RTVSPost2010Prop37
 90
       50
102
RTVSPost2010PropOp37
 70
     1
102
RTVSPost2010Prop38
140
0.0
102
RTVSPost2010PropOp38
 70
     1
102
RTVSPost2010Prop39
140
1.0
102
RTVSPost2010PropOp39
 70
     1
102
RTVSPost2010Prop40
 90
        0
102
RTVSPost2010PropOp40
 70
     1
102
RTVSPost2010Prop41ColorIndex
 90
       18
102
RTVSPost2010Prop41ColorRGB
 90
        0
102
RTVSPost2010PropOp41
 70
     1
102
RTVSPost2010Prop42
 90
       50
102
RTVSPost2010PropOp42
 70
     1
102
RTVSPost2010Prop43
 90
        3
102
RTVSPost2010PropOp43
 70
     1
102
RTVSPost2010Prop44ColorIndex
 90
        5
102
RTVSPost2010Prop44ColorRGB
 90
      255
102
RTVSPost2010PropOp44
 70
     1
102
RTVSPost2010Prop45
280
     0
102
RTVSPost2010PropOp45
 70
     1
102
RTVSPost2010Prop46
 90
       50
102
RTVSPost2010PropOp46
 70
     1
102
RTVSPost2010Prop47
 90
       50
102
RTVSPost2010PropOp47
 70
     1
102
RTVSPost2010Prop48
 90
       50
102
RTVSPost2010PropOp48
 70
     1
102
RTVSPost2010Prop49
280
     0
102
RTVSPost2010PropOp49
 70
     1
102
RTVSPost2010Prop50
 90
       50
102
RTVSPost2010PropOp50
 70
     1
102
RTVSPost2010Prop51ColorIndex
 90
      256
102
RTVSPost2010Prop51ColorRGB
 90
-16777216
102
RTVSPost2010PropOp51
 70
     0
102
RTVSPost2010Prop52
140
1.0
102
RTVSPost2010PropOp52
 70
     0
102
RTVSPost2010Prop53
 90
        2
102
RTVSPost2010PropOp53
 70
     1
102
RTVSPost2010Prop54
  1
strokes_ogs.tif
102
RTVSPost2010PropOp54
 70
     1
102
RTVSPost2010Prop55
280
     0
102
RTVSPost2010PropOp55
 70
     1
102
RTVSPost2010Prop56
140
1.0
102
RTVSPost2010PropOp56
 70
     1
102
RTVSPost2010Prop57
140
1.0
102
RTVSPost2010PropOp57
 70
     1
  0
XRECORD
  5
265
102
{ACAD_REACTORS
330
264
102
}
330
264
100
AcDbXrecord
280
     1
102
RTVSPropertyOp0
 70
     1
102
RTVSPropertyOp1
 70
     1
102
RTVSPropertyOp2
 70
     1
102
RTVSPropertyOp3
 70
     1
102
RTVSPropertyOp4
 70
     1
102
RTVSPropertyOp5
 70
     1
102
RTVSPropertyOp6
 70
     1
102
RTVSPropertyOp7
 70
     1
102
RTVSPropertyOp8
 70
     1
102
RTVSPropertyOp9
 70
     1
102
RTVSPropertyOp10
 70
     1
102
RTVSPropertyOp11
 70
     1
102
RTVSPropertyOp12
 70
     1
102
RTVSPropertyOp13
 70
     1
102
RTVSPropertyOp14
 70
     1
102
RTVSPropertyOp15
 70
     1
102
RTVSPropertyOp16
 70
     1
102
RTVSPropertyOp17
 70
     1
102
RTVSPropertyOp18
 70
     1
102
RTVSPropertyOp19
 70
     1
102
RTVSPropertyOp20
 70
     1
102
RTVSPropertyOp21
 70
     1
102
RTVSPropertyOp22
 70
     1
102
RTVSPropertyOp23
 70
     1
102
RTVSPropertyOp24
 70
     1
102
RTVSPropertyOp25
 70
     1
102
RTVSPropertyOp26
 70
     1
102
RTVSPropertyOp27
 70
     1
102
RTVSPropertyOp28
 70
     1
102
RTVSPropertyOp29
 70
     1
102
RTVSPropertyOp30
 70
     1
102
RTVSPropertyOp31
 70
     1
102
RTVSPropertyOp32
 70
     1
102
RTVSPropertyOp33
 70
     1
102
RTVSPropertyOp34
 70
     1
102
RTVSPropertyOp35
 70
     1
102
RTVSPropertyOp36
 70
     1
102
RTVSPropertyOp37
 70
     1
102
RTVSPropertyOp38
 70
     1
102
RTVSPropertyOp39
 70
     1
102
RTVSPropertyOp40
 70
     1
102
RTVSPropertyOp41
 70
     1
102
RTVSPropertyOp42
 70
     1
102
RTVSPropertyOp43
 70
     1
102
RTVSPropertyOp44
 70
     1
102
RTVSPropertyOp45
 70
     1
102
RTVSPropertyOp46
 70
     1
102
RTVSPropertyOp47
 70
     1
102
RTVSPropertyOp48
 70
     1
102
RTVSPropertyOp49
 70
     1
102
RTVSPropertyOp50
 70
     1
102
RTVSPropertyOp51
 70
     0
102
RTVSPropertyOp52
 70
     0
102
RTVSPropertyOp53
 70
     1
102
RTVSPropertyOp54
 70
     1
102
RTVSPropertyOp55
 70
     1
102
RTVSPropertyOp56
 70
     1
102
RTVSPropertyOp57
 70
     1
102
RTVSPost2010Prop28
280
     0
102
RTVSPost2010PropOp28
 70
     1
102
RTVSPost2010Prop29
280
     1
102
RTVSPost2010PropOp29
 70
     1
102
RTVSPost2010Prop30
280
     1
102
RTVSPost2010PropOp30
 70
     1
102
RTVSPost2010Prop31
280
     0
102
RTVSPost2010PropOp31
 70
     1
102
RTVSPost2010Prop32
280
     0
102
RTVSPost2010PropOp32
 70
     1
102
RTVSPost2010Prop33
280
     0
102
RTVSPost2010PropOp33
 70
     1
102
RTVSPost2010Prop34
280
     0
102
RTVSPost2010PropOp34
 70
     1
102
RTVSPost2010Prop35
280
     0
102
RTVSPost2010PropOp35
 70
     1
102
RTVSPost2010Prop36
280
     0
102
RTVSPost2010PropOp36
 70
     1
102
RTVSPost2010Prop37
 90
       50
102
RTVSPost2010PropOp37
 70
     1
102
RTVSPost2010Prop38
140
0.0
102
RTVSPost2010PropOp38
 70
     1
102
RTVSPost2010Prop39
140
1.0
102
RTVSPost2010PropOp39
 70
     1
102
RTVSPost2010Prop40
 90
        0
102
RTVSPost2010PropOp40
 70
     1
102
RTVSPost2010Prop41ColorIndex
 90
       18
102
RTVSPost2010Prop41ColorRGB
 90
        0
102
RTVSPost2010PropOp41
 70
     1
102
RTVSPost2010Prop42
 90
       50
102
RTVSPost2010PropOp42
 70
     1
102
RTVSPost2010Prop43
 90
        3
102
RTVSPost2010PropOp43
 70
     1
102
RTVSPost2010Prop44ColorIndex
 90
        5
102
RTVSPost2010Prop44ColorRGB
 90
      255
102
RTVSPost2010PropOp44
 70
     1
102
RTVSPost2010Prop45
280
     0
102
RTVSPost2010PropOp45
 70
     1
102
RTVSPost2010Prop46
 90
       50
102
RTVSPost2010PropOp46
 70
     1
102
RTVSPost2010Prop47
 90
       50
102
RTVSPost2010PropOp47
 70
     1
102
RTVSPost2010Prop48
 90
       50
102
RTVSPost2010PropOp48
 70
     1
102
RTVSPost2010Prop49
280
     0
102
RTVSPost2010PropOp49
 70
     1
102
RTVSPost2010Prop50
 90
       50
102
RTVSPost2010PropOp50
 70
     1
102
RTVSPost2010Prop51ColorIndex
 90
      256
102
RTVSPost2010Prop51ColorRGB
 90
-16777216
102
RTVSPost2010PropOp51
 70
     0
102
RTVSPost2010Prop52
140
1.0
102
RTVSPost2010PropOp52
 70
     0
102
RTVSPost2010Prop53
 90
        2
102
RTVSPost2010PropOp53
 70
     1
102
RTVSPost2010Prop54
  1
strokes_ogs.tif
102
RTVSPost2010PropOp54
 70
     1
102
RTVSPost2010Prop55
280
     0
102
RTVSPost2010PropOp55
 70
     1
102
RTVSPost2010Prop56
140
1.0
102
RTVSPost2010PropOp56
 70
     1
102
RTVSPost2010Prop57
140
1.0
102
RTVSPost2010PropOp57
 70
     1
  0
XRECORD
  5
267
102
{ACAD_REACTORS
330
266
102
}
330
266
100
AcDbXrecord
280
     1
102
RTVSPropertyOp0
 70
     1
102
RTVSPropertyOp1
 70
     1
102
RTVSPropertyOp2
 70
     1
102
RTVSPropertyOp3
 70
     1
102
RTVSPropertyOp4
 70
     1
102
RTVSPropertyOp5
 70
     1
102
RTVSPropertyOp6
 70
     1
102
RTVSPropertyOp7
 70
     1
102
RTVSPropertyOp8
 70
     1
102
RTVSPropertyOp9
 70
     1
102
RTVSPropertyOp10
 70
     1
102
RTVSPropertyOp11
 70
     1
102
RTVSPropertyOp12
 70
     1
102
RTVSPropertyOp13
 70
     1
102
RTVSPropertyOp14
 70
     1
102
RTVSPropertyOp15
 70
     1
102
RTVSPropertyOp16
 70
     1
102
RTVSPropertyOp17
 70
     1
102
RTVSPropertyOp18
 70
     1
102
RTVSPropertyOp19
 70
     1
102
RTVSPropertyOp20
 70
     1
102
RTVSPropertyOp21
 70
     1
102
RTVSPropertyOp22
 70
     1
102
RTVSPropertyOp23
 70
     1
102
RTVSPropertyOp24
 70
     1
102
RTVSPropertyOp25
 70
     1
102
RTVSPropertyOp26
 70
     1
102
RTVSPropertyOp27
 70
     1
102
RTVSPropertyOp28
 70
     1
102
RTVSPropertyOp29
 70
     1
102
RTVSPropertyOp30
 70
     1
102
RTVSPropertyOp31
 70
     1
102
RTVSPropertyOp32
 70
     1
102
RTVSPropertyOp33
 70
     1
102
RTVSPropertyOp34
 70
     1
102
RTVSPropertyOp35
 70
     1
102
RTVSPropertyOp36
 70
     1
102
RTVSPropertyOp37
 70
     1
102
RTVSPropertyOp38
 70
     1
102
RTVSPropertyOp39
 70
     1
102
RTVSPropertyOp40
 70
     1
102
RTVSPropertyOp41
 70
     1
102
RTVSPropertyOp42
 70
     1
102
RTVSPropertyOp43
 70
     1
102
RTVSPropertyOp44
 70
     1
102
RTVSPropertyOp45
 70
     1
102
RTVSPropertyOp46
 70
     1
102
RTVSPropertyOp47
 70
     1
102
RTVSPropertyOp48
 70
     1
102
RTVSPropertyOp49
 70
     1
102
RTVSPropertyOp50
 70
     1
102
RTVSPropertyOp51
 70
     0
102
RTVSPropertyOp52
 70
     0
102
RTVSPropertyOp53
 70
     1
102
RTVSPropertyOp54
 70
     1
102
RTVSPropertyOp55
 70
     1
102
RTVSPropertyOp56
 70
     1
102
RTVSPropertyOp57
 70
     1
102
RTVSPost2010Prop28
280
     0
102
RTVSPost2010PropOp28
 70
     1
102
RTVSPost2010Prop29
280
     1
102
RTVSPost2010PropOp29
 70
     1
102
RTVSPost2010Prop30
280
     1
102
RTVSPost2010PropOp30
 70
     1
102
RTVSPost2010Prop31
280
     0
102
RTVSPost2010PropOp31
 70
     1
102
RTVSPost2010Prop32
280
     0
102
RTVSPost2010PropOp32
 70
     1
102
RTVSPost2010Prop33
280
     0
102
RTVSPost2010PropOp33
 70
     1
102
RTVSPost2010Prop34
280
     0
102
RTVSPost2010PropOp34
 70
     1
102
RTVSPost2010Prop35
280
     0
102
RTVSPost2010PropOp35
 70
     1
102
RTVSPost2010Prop36
280
     0
102
RTVSPost2010PropOp36
 70
     1
102
RTVSPost2010Prop37
 90
       50
102
RTVSPost2010PropOp37
 70
     1
102
RTVSPost2010Prop38
140
0.0
102
RTVSPost2010PropOp38
 70
     1
102
RTVSPost2010Prop39
140
1.0
102
RTVSPost2010PropOp39
 70
     1
102
RTVSPost2010Prop40
 90
        0
102
RTVSPost2010PropOp40
 70
     1
102
RTVSPost2010Prop41ColorIndex
 90
       18
102
RTVSPost2010Prop41ColorRGB
 90
        0
102
RTVSPost2010PropOp41
 70
     1
102
RTVSPost2010Prop42
 90
       50
102
RTVSPost2010PropOp42
 70
     1
102
RTVSPost2010Prop43
 90
        3
102
RTVSPost2010PropOp43
 70
     1
102
RTVSPost2010Prop44ColorIndex
 90
        5
102
RTVSPost2010Prop44ColorRGB
 90
      255
102
RTVSPost2010PropOp44
 70
     1
102
RTVSPost2010Prop45
280
     0
102
RTVSPost2010PropOp45
 70
     1
102
RTVSPost2010Prop46
 90
       50
102
RTVSPost2010PropOp46
 70
     1
102
RTVSPost2010Prop47
 90
       50
102
RTVSPost2010PropOp47
 70
     1
102
RTVSPost2010Prop48
 90
       50
102
RTVSPost2010PropOp48
 70
     1
102
RTVSPost2010Prop49
280
     0
102
RTVSPost2010PropOp49
 70
     1
102
RTVSPost2010Prop50
 90
       50
102
RTVSPost2010PropOp50
 70
     1
102
RTVSPost2010Prop51ColorIndex
 90
      256
102
RTVSPost2010Prop51ColorRGB
 90
-16777216
102
RTVSPost2010PropOp51
 70
     0
102
RTVSPost2010Prop52
140
1.0
102
RTVSPost2010PropOp52
 70
     0
102
RTVSPost2010Prop53
 90
        2
102
RTVSPost2010PropOp53
 70
     1
102
RTVSPost2010Prop54
  1
strokes_ogs.tif
102
RTVSPost2010PropOp54
 70
     1
102
RTVSPost2010Prop55
280
     0
102
RTVSPost2010PropOp55
 70
     1
102
RTVSPost2010Prop56
140
1.0
102
RTVSPost2010PropOp56
 70
     1
102
RTVSPost2010Prop57
140
1.0
102
RTVSPost2010PropOp57
 70
     1
  0
XRECORD
  5
26D
102
{ACAD_REACTORS
330
26C
102
}
330
26C
100
AcDbXrecord
280
     1
102
RTVSPropertyOp0
 70
     1
102
RTVSPropertyOp1
 70
     1
102
RTVSPropertyOp2
 70
     1
102
RTVSPropertyOp3
 70
     1
102
RTVSPropertyOp4
 70
     1
102
RTVSPropertyOp5
 70
     1
102
RTVSPropertyOp6
 70
     1
102
RTVSPropertyOp7
 70
     1
102
RTVSPropertyOp8
 70
     1
102
RTVSPropertyOp9
 70
     1
102
RTVSPropertyOp10
 70
     1
102
RTVSPropertyOp11
 70
     1
102
RTVSPropertyOp12
 70
     1
102
RTVSPropertyOp13
 70
     1
102
RTVSPropertyOp14
 70
     1
102
RTVSPropertyOp15
 70
     1
102
RTVSPropertyOp16
 70
     1
102
RTVSPropertyOp17
 70
     1
102
RTVSPropertyOp18
 70
     1
102
RTVSPropertyOp19
 70
     1
102
RTVSPropertyOp20
 70
     1
102
RTVSPropertyOp21
 70
     1
102
RTVSPropertyOp22
 70
     1
102
RTVSPropertyOp23
 70
     1
102
RTVSPropertyOp24
 70
     1
102
RTVSPropertyOp25
 70
     1
102
RTVSPropertyOp26
 70
     1
102
RTVSPropertyOp27
 70
     1
102
RTVSPropertyOp28
 70
     1
102
RTVSPropertyOp29
 70
     1
102
RTVSPropertyOp30
 70
     1
102
RTVSPropertyOp31
 70
     1
102
RTVSPropertyOp32
 70
     1
102
RTVSPropertyOp33
 70
     1
102
RTVSPropertyOp34
 70
     1
102
RTVSPropertyOp35
 70
     1
102
RTVSPropertyOp36
 70
     1
102
RTVSPropertyOp37
 70
     1
102
RTVSPropertyOp38
 70
     1
102
RTVSPropertyOp39
 70
     1
102
RTVSPropertyOp40
 70
     1
102
RTVSPropertyOp41
 70
     1
102
RTVSPropertyOp42
 70
     1
102
RTVSPropertyOp43
 70
     1
102
RTVSPropertyOp44
 70
     1
102
RTVSPropertyOp45
 70
     1
102
RTVSPropertyOp46
 70
     1
102
RTVSPropertyOp47
 70
     1
102
RTVSPropertyOp48
 70
     1
102
RTVSPropertyOp49
 70
     1
102
RTVSPropertyOp50
 70
     1
102
RTVSPropertyOp51
 70
     0
102
RTVSPropertyOp52
 70
     0
102
RTVSPropertyOp53
 70
     1
102
RTVSPropertyOp54
 70
     1
102
RTVSPropertyOp55
 70
     1
102
RTVSPropertyOp56
 70
     1
102
RTVSPropertyOp57
 70
     1
102
RTVSPost2010Prop28
280
     0
102
RTVSPost2010PropOp28
 70
     1
102
RTVSPost2010Prop29
280
     1
102
RTVSPost2010PropOp29
 70
     1
102
RTVSPost2010Prop30
280
     1
102
RTVSPost2010PropOp30
 70
     1
102
RTVSPost2010Prop31
280
     0
102
RTVSPost2010PropOp31
 70
     1
102
RTVSPost2010Prop32
280
     0
102
RTVSPost2010PropOp32
 70
     1
102
RTVSPost2010Prop33
280
     0
102
RTVSPost2010PropOp33
 70
     1
102
RTVSPost2010Prop34
280
     0
102
RTVSPost2010PropOp34
 70
     1
102
RTVSPost2010Prop35
280
     0
102
RTVSPost2010PropOp35
 70
     1
102
RTVSPost2010Prop36
280
     0
102
RTVSPost2010PropOp36
 70
     1
102
RTVSPost2010Prop37
 90
       50
102
RTVSPost2010PropOp37
 70
     1
102
RTVSPost2010Prop38
140
0.0
102
RTVSPost2010PropOp38
 70
     1
102
RTVSPost2010Prop39
140
1.0
102
RTVSPost2010PropOp39
 70
     1
102
RTVSPost2010Prop40
 90
        0
102
RTVSPost2010PropOp40
 70
     1
102
RTVSPost2010Prop41ColorIndex
 90
       18
102
RTVSPost2010Prop41ColorRGB
 90
        0
102
RTVSPost2010PropOp41
 70
     1
102
RTVSPost2010Prop42
 90
       50
102
RTVSPost2010PropOp42
 70
     1
102
RTVSPost2010Prop43
 90
        3
102
RTVSPost2010PropOp43
 70
     1
102
RTVSPost2010Prop44ColorIndex
 90
        5
102
RTVSPost2010Prop44ColorRGB
 90
      255
102
RTVSPost2010PropOp44
 70
     1
102
RTVSPost2010Prop45
280
     0
102
RTVSPost2010PropOp45
 70
     1
102
RTVSPost2010Prop46
 90
       50
102
RTVSPost2010PropOp46
 70
     1
102
RTVSPost2010Prop47
 90
       50
102
RTVSPost2010PropOp47
 70
     1
102
RTVSPost2010Prop48
 90
       50
102
RTVSPost2010PropOp48
 70
     1
102
RTVSPost2010Prop49
280
     0
102
RTVSPost2010PropOp49
 70
     1
102
RTVSPost2010Prop50
 90
       50
102
RTVSPost2010PropOp50
 70
     1
102
RTVSPost2010Prop51ColorIndex
 90
      256
102
RTVSPost2010Prop51ColorRGB
 90
-16777216
102
RTVSPost2010PropOp51
 70
     0
102
RTVSPost2010Prop52
140
1.0
102
RTVSPost2010PropOp52
 70
     0
102
RTVSPost2010Prop53
 90
        2
102
RTVSPost2010PropOp53
 70
     1
102
RTVSPost2010Prop54
  1
strokes_ogs.tif
102
RTVSPost2010PropOp54
 70
     1
102
RTVSPost2010Prop55
280
     0
102
RTVSPost2010PropOp55
 70
     1
102
RTVSPost2010Prop56
140
1.0
102
RTVSPost2010PropOp56
 70
     1
102
RTVSPost2010Prop57
140
1.0
102
RTVSPost2010PropOp57
 70
     1
  0
XRECORD
  5
281
102
{ACAD_REACTORS
330
280
102
}
330
280
100
AcDbXrecord
280
     1
102
RTVSPropertyOp0
 70
     0
102
RTVSPropertyOp1
 70
     0
102
RTVSPropertyOp2
 70
     0
102
RTVSPropertyOp3
 70
     0
102
RTVSPropertyOp4
 70
     0
102
RTVSPropertyOp5
 70
     0
102
RTVSPropertyOp6
 70
     0
102
RTVSPropertyOp7
 70
     0
102
RTVSPropertyOp8
 70
     0
102
RTVSPropertyOp9
 70
     0
102
RTVSPropertyOp10
 70
     0
102
RTVSPropertyOp11
 70
     0
102
RTVSPropertyOp12
 70
     0
102
RTVSPropertyOp13
 70
     0
102
RTVSPropertyOp14
 70
     2
102
RTVSPropertyOp15
 70
     0
102
RTVSPropertyOp16
 70
     0
102
RTVSPropertyOp17
 70
     0
102
RTVSPropertyOp18
 70
     0
102
RTVSPropertyOp19
 70
     0
102
RTVSPropertyOp20
 70
     0
102
RTVSPropertyOp21
 70
     0
102
RTVSPropertyOp22
 70
     0
102
RTVSPropertyOp23
 70
     0
102
RTVSPropertyOp24
 70
     0
102
RTVSPropertyOp25
 70
     0
102
RTVSPropertyOp26
 70
     0
102
RTVSPropertyOp27
 70
     0
102
RTVSPropertyOp28
 70
     0
102
RTVSPropertyOp29
 70
     0
102
RTVSPropertyOp30
 70
     0
102
RTVSPropertyOp31
 70
     0
102
RTVSPropertyOp32
 70
     0
102
RTVSPropertyOp33
 70
     0
102
RTVSPropertyOp34
 70
     0
102
RTVSPropertyOp35
 70
     0
102
RTVSPropertyOp36
 70
     0
102
RTVSPropertyOp37
 70
     0
102
RTVSPropertyOp38
 70
     0
102
RTVSPropertyOp39
 70
     0
102
RTVSPropertyOp40
 70
     0
102
RTVSPropertyOp41
 70
     0
102
RTVSPropertyOp42
 70
     0
102
RTVSPropertyOp43
 70
     0
102
RTVSPropertyOp44
 70
     0
102
RTVSPropertyOp45
 70
     0
102
RTVSPropertyOp46
 70
     0
102
RTVSPropertyOp47
 70
     0
102
RTVSPropertyOp48
 70
     0
102
RTVSPropertyOp49
 70
     0
102
RTVSPropertyOp50
 70
     0
102
RTVSPropertyOp51
 70
     0
102
RTVSPropertyOp52
 70
     0
102
RTVSPropertyOp53
 70
     0
102
RTVSPropertyOp54
 70
     0
102
RTVSPropertyOp55
 70
     0
102
RTVSPropertyOp56
 70
     0
102
RTVSPropertyOp57
 70
     0
102
RTVSPost2010Prop28
280
     0
102
RTVSPost2010PropOp28
 70
     0
102
RTVSPost2010Prop29
280
     1
102
RTVSPost2010PropOp29
 70
     0
102
RTVSPost2010Prop30
280
     1
102
RTVSPost2010PropOp30
 70
     0
102
RTVSPost2010Prop31
280
     0
102
RTVSPost2010PropOp31
 70
     0
102
RTVSPost2010Prop32
280
     0
102
RTVSPost2010PropOp32
 70
     0
102
RTVSPost2010Prop33
280
     0
102
RTVSPost2010PropOp33
 70
     0
102
RTVSPost2010Prop34
280
     0
102
RTVSPost2010PropOp34
 70
     0
102
RTVSPost2010Prop35
280
     0
102
RTVSPost2010PropOp35
 70
     0
102
RTVSPost2010Prop36
280
     0
102
RTVSPost2010PropOp36
 70
     0
102
RTVSPost2010Prop37
 90
       50
102
RTVSPost2010PropOp37
 70
     0
102
RTVSPost2010Prop38
140
0.0
102
RTVSPost2010PropOp38
 70
     0
102
RTVSPost2010Prop39
140
1.0
102
RTVSPost2010PropOp39
 70
     0
102
RTVSPost2010Prop40
 90
        0
102
RTVSPost2010PropOp40
 70
     0
102
RTVSPost2010Prop41ColorIndex
 90
       18
102
RTVSPost2010Prop41ColorRGB
 90
        0
102
RTVSPost2010PropOp41
 70
     0
102
RTVSPost2010Prop42
 90
       50
102
RTVSPost2010PropOp42
 70
     0
102
RTVSPost2010Prop43
 90
        3
102
RTVSPost2010PropOp43
 70
     0
102
RTVSPost2010Prop44ColorIndex
 90
        5
102
RTVSPost2010Prop44ColorRGB
 90
      255
102
RTVSPost2010PropOp44
 70
     0
102
RTVSPost2010Prop45
280
     0
102
RTVSPost2010PropOp45
 70
     0
102
RTVSPost2010Prop46
 90
       50
102
RTVSPost2010PropOp46
 70
     0
102
RTVSPost2010Prop47
 90
       50
102
RTVSPost2010PropOp47
 70
     0
102
RTVSPost2010Prop48
 90
       50
102
RTVSPost2010PropOp48
 70
     0
102
RTVSPost2010Prop49
280
     0
102
RTVSPost2010PropOp49
 70
     0
102
RTVSPost2010Prop50
 90
       50
102
RTVSPost2010PropOp50
 70
     0
102
RTVSPost2010Prop51ColorIndex
 90
      256
102
RTVSPost2010Prop51ColorRGB
 90
-16777216
102
RTVSPost2010PropOp51
 70
     0
102
RTVSPost2010Prop52
140
1.0
102
RTVSPost2010PropOp52
 70
     0
102
RTVSPost2010Prop53
 90
        2
102
RTVSPost2010PropOp53
 70
     0
102
RTVSPost2010Prop54
  1
strokes_ogs.tif
102
RTVSPost2010PropOp54
 70
     0
102
RTVSPost2010Prop55
280
     0
102
RTVSPost2010PropOp55
 70
     0
102
RTVSPost2010Prop56
140
1.0
102
RTVSPost2010PropOp56
 70
     0
102
RTVSPost2010Prop57
140
1.0
102
RTVSPost2010PropOp57
 70
     0
  0
XRECORD
  5
27B
102
{ACAD_REACTORS
330
27A
102
}
330
27A
100
AcDbXrecord
280
     1
102
RTVSPropertyOp0
 70
     1
102
RTVSPropertyOp1
 70
     1
102
RTVSPropertyOp2
 70
     1
102
RTVSPropertyOp3
 70
     1
102
RTVSPropertyOp4
 70
     1
102
RTVSPropertyOp5
 70
     1
102
RTVSPropertyOp6
 70
     1
102
RTVSPropertyOp7
 70
     1
102
RTVSPropertyOp8
 70
     1
102
RTVSPropertyOp9
 70
     1
102
RTVSPropertyOp10
 70
     1
102
RTVSPropertyOp11
 70
     1
102
RTVSPropertyOp12
 70
     1
102
RTVSPropertyOp13
 70
     1
102
RTVSPropertyOp14
 70
     1
102
RTVSPropertyOp15
 70
     1
102
RTVSPropertyOp16
 70
     1
102
RTVSPropertyOp17
 70
     1
102
RTVSPropertyOp18
 70
     1
102
RTVSPropertyOp19
 70
     1
102
RTVSPropertyOp20
 70
     1
102
RTVSPropertyOp21
 70
     1
102
RTVSPropertyOp22
 70
     1
102
RTVSPropertyOp23
 70
     1
102
RTVSPropertyOp24
 70
     1
102
RTVSPropertyOp25
 70
     1
102
RTVSPropertyOp26
 70
     1
102
RTVSPropertyOp27
 70
     1
102
RTVSPropertyOp28
 70
     1
102
RTVSPropertyOp29
 70
     1
102
RTVSPropertyOp30
 70
     1
102
RTVSPropertyOp31
 70
     1
102
RTVSPropertyOp32
 70
     1
102
RTVSPropertyOp33
 70
     1
102
RTVSPropertyOp34
 70
     1
102
RTVSPropertyOp35
 70
     1
102
RTVSPropertyOp36
 70
     1
102
RTVSPropertyOp37
 70
     1
102
RTVSPropertyOp38
 70
     1
102
RTVSPropertyOp39
 70
     1
102
RTVSPropertyOp40
 70
     1
102
RTVSPropertyOp41
 70
     1
102
RTVSPropertyOp42
 70
     1
102
RTVSPropertyOp43
 70
     1
102
RTVSPropertyOp44
 70
     1
102
RTVSPropertyOp45
 70
     1
102
RTVSPropertyOp46
 70
     1
102
RTVSPropertyOp47
 70
     1
102
RTVSPropertyOp48
 70
     1
102
RTVSPropertyOp49
 70
     1
102
RTVSPropertyOp50
 70
     1
102
RTVSPropertyOp51
 70
     0
102
RTVSPropertyOp52
 70
     0
102
RTVSPropertyOp53
 70
     1
102
RTVSPropertyOp54
 70
     1
102
RTVSPropertyOp55
 70
     1
102
RTVSPropertyOp56
 70
     1
102
RTVSPropertyOp57
 70
     1
102
RTVSPost2010Prop28
280
     0
102
RTVSPost2010PropOp28
 70
     1
102
RTVSPost2010Prop29
280
     1
102
RTVSPost2010PropOp29
 70
     1
102
RTVSPost2010Prop30
280
     1
102
RTVSPost2010PropOp30
 70
     1
102
RTVSPost2010Prop31
280
     0
102
RTVSPost2010PropOp31
 70
     1
102
RTVSPost2010Prop32
280
     0
102
RTVSPost2010PropOp32
 70
     1
102
RTVSPost2010Prop33
280
     0
102
RTVSPost2010PropOp33
 70
     1
102
RTVSPost2010Prop34
280
     0
102
RTVSPost2010PropOp34
 70
     1
102
RTVSPost2010Prop35
280
     0
102
RTVSPost2010PropOp35
 70
     1
102
RTVSPost2010Prop36
280
     0
102
RTVSPost2010PropOp36
 70
     1
102
RTVSPost2010Prop37
 90
       50
102
RTVSPost2010PropOp37
 70
     1
102
RTVSPost2010Prop38
140
0.0
102
RTVSPost2010PropOp38
 70
     1
102
RTVSPost2010Prop39
140
1.0
102
RTVSPost2010PropOp39
 70
     1
102
RTVSPost2010Prop40
 90
        0
102
RTVSPost2010PropOp40
 70
     1
102
RTVSPost2010Prop41ColorIndex
 90
       18
102
RTVSPost2010Prop41ColorRGB
 90
        0
102
RTVSPost2010PropOp41
 70
     1
102
RTVSPost2010Prop42
 90
       50
102
RTVSPost2010PropOp42
 70
     1
102
RTVSPost2010Prop43
 90
        3
102
RTVSPost2010PropOp43
 70
     1
102
RTVSPost2010Prop44ColorIndex
 90
        5
102
RTVSPost2010Prop44ColorRGB
 90
      255
102
RTVSPost2010PropOp44
 70
     1
102
RTVSPost2010Prop45
280
     0
102
RTVSPost2010PropOp45
 70
     1
102
RTVSPost2010Prop46
 90
       50
102
RTVSPost2010PropOp46
 70
     1
102
RTVSPost2010Prop47
 90
       50
102
RTVSPost2010PropOp47
 70
     1
102
RTVSPost2010Prop48
 90
       50
102
RTVSPost2010PropOp48
 70
     1
102
RTVSPost2010Prop49
280
     0
102
RTVSPost2010PropOp49
 70
     1
102
RTVSPost2010Prop50
 90
       50
102
RTVSPost2010PropOp50
 70
     1
102
RTVSPost2010Prop51ColorIndex
 90
      256
102
RTVSPost2010Prop51ColorRGB
 90
-16777216
102
RTVSPost2010PropOp51
 70
     0
102
RTVSPost2010Prop52
140
1.0
102
RTVSPost2010PropOp52
 70
     0
102
RTVSPost2010Prop53
 90
        2
102
RTVSPost2010PropOp53
 70
     1
102
RTVSPost2010Prop54
  1
strokes_ogs.tif
102
RTVSPost2010PropOp54
 70
     1
102
RTVSPost2010Prop55
280
     0
102
RTVSPost2010PropOp55
 70
     1
102
RTVSPost2010Prop56
140
1.0
102
RTVSPost2010PropOp56
 70
     1
102
RTVSPost2010Prop57
140
1.0
102
RTVSPost2010PropOp57
 70
     1
  0
XRECORD
  5
283
102
{ACAD_REACTORS
330
282
102
}
330
282
100
AcDbXrecord
280
     1
102
RTVSPropertyOp0
 70
     0
102
RTVSPropertyOp1
 70
     0
102
RTVSPropertyOp2
 70
     0
102
RTVSPropertyOp3
 70
     0
102
RTVSPropertyOp4
 70
     0
102
RTVSPropertyOp5
 70
     0
102
RTVSPropertyOp6
 70
     0
102
RTVSPropertyOp7
 70
     0
102
RTVSPropertyOp8
 70
     0
102
RTVSPropertyOp9
 70
     0
102
RTVSPropertyOp10
 70
     0
102
RTVSPropertyOp11
 70
     0
102
RTVSPropertyOp12
 70
     0
102
RTVSPropertyOp13
 70
     0
102
RTVSPropertyOp14
 70
     2
102
RTVSPropertyOp15
 70
     0
102
RTVSPropertyOp16
 70
     0
102
RTVSPropertyOp17
 70
     0
102
RTVSPropertyOp18
 70
     0
102
RTVSPropertyOp19
 70
     0
102
RTVSPropertyOp20
 70
     0
102
RTVSPropertyOp21
 70
     0
102
RTVSPropertyOp22
 70
     0
102
RTVSPropertyOp23
 70
     0
102
RTVSPropertyOp24
 70
     0
102
RTVSPropertyOp25
 70
     0
102
RTVSPropertyOp26
 70
     0
102
RTVSPropertyOp27
 70
     0
102
RTVSPropertyOp28
 70
     0
102
RTVSPropertyOp29
 70
     0
102
RTVSPropertyOp30
 70
     0
102
RTVSPropertyOp31
 70
     0
102
RTVSPropertyOp32
 70
     0
102
RTVSPropertyOp33
 70
     0
102
RTVSPropertyOp34
 70
     0
102
RTVSPropertyOp35
 70
     0
102
RTVSPropertyOp36
 70
     0
102
RTVSPropertyOp37
 70
     0
102
RTVSPropertyOp38
 70
     0
102
RTVSPropertyOp39
 70
     0
102
RTVSPropertyOp40
 70
     0
102
RTVSPropertyOp41
 70
     0
102
RTVSPropertyOp42
 70
     0
102
RTVSPropertyOp43
 70
     0
102
RTVSPropertyOp44
 70
     0
102
RTVSPropertyOp45
 70
     0
102
RTVSPropertyOp46
 70
     0
102
RTVSPropertyOp47
 70
     0
102
RTVSPropertyOp48
 70
     0
102
RTVSPropertyOp49
 70
     0
102
RTVSPropertyOp50
 70
     0
102
RTVSPropertyOp51
 70
     0
102
RTVSPropertyOp52
 70
     0
102
RTVSPropertyOp53
 70
     0
102
RTVSPropertyOp54
 70
     0
102
RTVSPropertyOp55
 70
     0
102
RTVSPropertyOp56
 70
     0
102
RTVSPropertyOp57
 70
     0
102
RTVSPost2010Prop28
280
     0
102
RTVSPost2010PropOp28
 70
     0
102
RTVSPost2010Prop29
280
     1
102
RTVSPost2010PropOp29
 70
     0
102
RTVSPost2010Prop30
280
     1
102
RTVSPost2010PropOp30
 70
     0
102
RTVSPost2010Prop31
280
     0
102
RTVSPost2010PropOp31
 70
     0
102
RTVSPost2010Prop32
280
     0
102
RTVSPost2010PropOp32
 70
     0
102
RTVSPost2010Prop33
280
     0
102
RTVSPost2010PropOp33
 70
     0
102
RTVSPost2010Prop34
280
     0
102
RTVSPost2010PropOp34
 70
     0
102
RTVSPost2010Prop35
280
     0
102
RTVSPost2010PropOp35
 70
     0
102
RTVSPost2010Prop36
280
     0
102
RTVSPost2010PropOp36
 70
     0
102
RTVSPost2010Prop37
 90
       50
102
RTVSPost2010PropOp37
 70
     0
102
RTVSPost2010Prop38
140
0.0
102
RTVSPost2010PropOp38
 70
     0
102
RTVSPost2010Prop39
140
1.0
102
RTVSPost2010PropOp39
 70
     0
102
RTVSPost2010Prop40
 90
        0
102
RTVSPost2010PropOp40
 70
     0
102
RTVSPost2010Prop41ColorIndex
 90
       18
102
RTVSPost2010Prop41ColorRGB
 90
        0
102
RTVSPost2010PropOp41
 70
     0
102
RTVSPost2010Prop42
 90
       50
102
RTVSPost2010PropOp42
 70
     0
102
RTVSPost2010Prop43
 90
        3
102
RTVSPost2010PropOp43
 70
     0
102
RTVSPost2010Prop44ColorIndex
 90
        5
102
RTVSPost2010Prop44ColorRGB
 90
      255
102
RTVSPost2010PropOp44
 70
     0
102
RTVSPost2010Prop45
280
     0
102
RTVSPost2010PropOp45
 70
     0
102
RTVSPost2010Prop46
 90
       50
102
RTVSPost2010PropOp46
 70
     0
102
RTVSPost2010Prop47
 90
       50
102
RTVSPost2010PropOp47
 70
     0
102
RTVSPost2010Prop48
 90
       50
102
RTVSPost2010PropOp48
 70
     0
102
RTVSPost2010Prop49
280
     0
102
RTVSPost2010PropOp49
 70
     0
102
RTVSPost2010Prop50
 90
       50
102
RTVSPost2010PropOp50
 70
     0
102
RTVSPost2010Prop51ColorIndex
 90
      256
102
RTVSPost2010Prop51ColorRGB
 90
-16777216
102
RTVSPost2010PropOp51
 70
     0
102
RTVSPost2010Prop52
140
1.0
102
RTVSPost2010PropOp52
 70
     0
102
RTVSPost2010Prop53
 90
        2
102
RTVSPost2010PropOp53
 70
     0
102
RTVSPost2010Prop54
  1
strokes_ogs.tif
102
RTVSPost2010PropOp54
 70
     0
102
RTVSPost2010Prop55
280
     0
102
RTVSPost2010PropOp55
 70
     0
102
RTVSPost2010Prop56
140
1.0
102
RTVSPost2010PropOp56
 70
     0
102
RTVSPost2010Prop57
140
1.0
102
RTVSPost2010PropOp57
 70
     0
  0
XRECORD
  5
271
102
{ACAD_REACTORS
330
270
102
}
330
270
100
AcDbXrecord
280
     1
102
RTVSPropertyOp0
 70
     1
102
RTVSPropertyOp1
 70
     1
102
RTVSPropertyOp2
 70
     1
102
RTVSPropertyOp3
 70
     1
102
RTVSPropertyOp4
 70
     1
102
RTVSPropertyOp5
 70
     1
102
RTVSPropertyOp6
 70
     1
102
RTVSPropertyOp7
 70
     1
102
RTVSPropertyOp8
 70
     1
102
RTVSPropertyOp9
 70
     1
102
RTVSPropertyOp10
 70
     1
102
RTVSPropertyOp11
 70
     1
102
RTVSPropertyOp12
 70
     1
102
RTVSPropertyOp13
 70
     1
102
RTVSPropertyOp14
 70
     1
102
RTVSPropertyOp15
 70
     1
102
RTVSPropertyOp16
 70
     1
102
RTVSPropertyOp17
 70
     1
102
RTVSPropertyOp18
 70
     1
102
RTVSPropertyOp19
 70
     1
102
RTVSPropertyOp20
 70
     1
102
RTVSPropertyOp21
 70
     1
102
RTVSPropertyOp22
 70
     1
102
RTVSPropertyOp23
 70
     1
102
RTVSPropertyOp24
 70
     1
102
RTVSPropertyOp25
 70
     1
102
RTVSPropertyOp26
 70
     1
102
RTVSPropertyOp27
 70
     1
102
RTVSPropertyOp28
 70
     1
102
RTVSPropertyOp29
 70
     1
102
RTVSPropertyOp30
 70
     1
102
RTVSPropertyOp31
 70
     1
102
RTVSPropertyOp32
 70
     1
102
RTVSPropertyOp33
 70
     1
102
RTVSPropertyOp34
 70
     1
102
RTVSPropertyOp35
 70
     1
102
RTVSPropertyOp36
 70
     1
102
RTVSPropertyOp37
 70
     1
102
RTVSPropertyOp38
 70
     1
102
RTVSPropertyOp39
 70
     1
102
RTVSPropertyOp40
 70
     1
102
RTVSPropertyOp41
 70
     1
102
RTVSPropertyOp42
 70
     1
102
RTVSPropertyOp43
 70
     1
102
RTVSPropertyOp44
 70
     1
102
RTVSPropertyOp45
 70
     1
102
RTVSPropertyOp46
 70
     1
102
RTVSPropertyOp47
 70
     1
102
RTVSPropertyOp48
 70
     1
102
RTVSPropertyOp49
 70
     1
102
RTVSPropertyOp50
 70
     1
102
RTVSPropertyOp51
 70
     0
102
RTVSPropertyOp52
 70
     0
102
RTVSPropertyOp53
 70
     1
102
RTVSPropertyOp54
 70
     1
102
RTVSPropertyOp55
 70
     1
102
RTVSPropertyOp56
 70
     1
102
RTVSPropertyOp57
 70
     1
102
RTVSPost2010Prop28
280
     0
102
RTVSPost2010PropOp28
 70
     1
102
RTVSPost2010Prop29
280
     1
102
RTVSPost2010PropOp29
 70
     1
102
RTVSPost2010Prop30
280
     1
102
RTVSPost2010PropOp30
 70
     1
102
RTVSPost2010Prop31
280
     0
102
RTVSPost2010PropOp31
 70
     1
102
RTVSPost2010Prop32
280
     0
102
RTVSPost2010PropOp32
 70
     1
102
RTVSPost2010Prop33
280
     0
102
RTVSPost2010PropOp33
 70
     1
102
RTVSPost2010Prop34
280
     0
102
RTVSPost2010PropOp34
 70
     1
102
RTVSPost2010Prop35
280
     0
102
RTVSPost2010PropOp35
 70
     1
102
RTVSPost2010Prop36
280
     0
102
RTVSPost2010PropOp36
 70
     1
102
RTVSPost2010Prop37
 90
       50
102
RTVSPost2010PropOp37
 70
     1
102
RTVSPost2010Prop38
140
0.0
102
RTVSPost2010PropOp38
 70
     1
102
RTVSPost2010Prop39
140
1.0
102
RTVSPost2010PropOp39
 70
     1
102
RTVSPost2010Prop40
 90
        0
102
RTVSPost2010PropOp40
 70
     1
102
RTVSPost2010Prop41ColorIndex
 90
       18
102
RTVSPost2010Prop41ColorRGB
 90
        0
102
RTVSPost2010PropOp41
 70
     1
102
RTVSPost2010Prop42
 90
       50
102
RTVSPost2010PropOp42
 70
     1
102
RTVSPost2010Prop43
 90
        3
102
RTVSPost2010PropOp43
 70
     1
102
RTVSPost2010Prop44ColorIndex
 90
        5
102
RTVSPost2010Prop44ColorRGB
 90
      255
102
RTVSPost2010PropOp44
 70
     1
102
RTVSPost2010Prop45
280
     0
102
RTVSPost2010PropOp45
 70
     1
102
RTVSPost2010Prop46
 90
       50
102
RTVSPost2010PropOp46
 70
     1
102
RTVSPost2010Prop47
 90
       50
102
RTVSPost2010PropOp47
 70
     1
102
RTVSPost2010Prop48
 90
       50
102
RTVSPost2010PropOp48
 70
     1
102
RTVSPost2010Prop49
280
     0
102
RTVSPost2010PropOp49
 70
     1
102
RTVSPost2010Prop50
 90
       50
102
RTVSPost2010PropOp50
 70
     1
102
RTVSPost2010Prop51ColorIndex
 90
      256
102
RTVSPost2010Prop51ColorRGB
 90
-16777216
102
RTVSPost2010PropOp51
 70
     0
102
RTVSPost2010Prop52
140
1.0
102
RTVSPost2010PropOp52
 70
     0
102
RTVSPost2010Prop53
 90
        2
102
RTVSPost2010PropOp53
 70
     1
102
RTVSPost2010Prop54
  1
strokes_ogs.tif
102
RTVSPost2010PropOp54
 70
     1
102
RTVSPost2010Prop55
280
     0
102
RTVSPost2010PropOp55
 70
     1
102
RTVSPost2010Prop56
140
1.0
102
RTVSPost2010PropOp56
 70
     1
102
RTVSPost2010Prop57
140
1.0
102
RTVSPost2010PropOp57
 70
     1
  0
XRECORD
  5
28F
102
{ACAD_REACTORS
330
28E
102
}
330
28E
100
AcDbXrecord
280
     1
102
RTVSPropertyOp0
 70
     1
102
RTVSPropertyOp1
 70
     1
102
RTVSPropertyOp2
 70
     1
102
RTVSPropertyOp3
 70
     1
102
RTVSPropertyOp4
 70
     1
102
RTVSPropertyOp5
 70
     1
102
RTVSPropertyOp6
 70
     1
102
RTVSPropertyOp7
 70
     1
102
RTVSPropertyOp8
 70
     1
102
RTVSPropertyOp9
 70
     1
102
RTVSPropertyOp10
 70
     1
102
RTVSPropertyOp11
 70
     1
102
RTVSPropertyOp12
 70
     1
102
RTVSPropertyOp13
 70
     1
102
RTVSPropertyOp14
 70
     1
102
RTVSPropertyOp15
 70
     1
102
RTVSPropertyOp16
 70
     1
102
RTVSPropertyOp17
 70
     1
102
RTVSPropertyOp18
 70
     1
102
RTVSPropertyOp19
 70
     1
102
RTVSPropertyOp20
 70
     1
102
RTVSPropertyOp21
 70
     1
102
RTVSPropertyOp22
 70
     1
102
RTVSPropertyOp23
 70
     1
102
RTVSPropertyOp24
 70
     1
102
RTVSPropertyOp25
 70
     1
102
RTVSPropertyOp26
 70
     1
102
RTVSPropertyOp27
 70
     1
102
RTVSPropertyOp28
 70
     1
102
RTVSPropertyOp29
 70
     1
102
RTVSPropertyOp30
 70
     1
102
RTVSPropertyOp31
 70
     1
102
RTVSPropertyOp32
 70
     1
102
RTVSPropertyOp33
 70
     1
102
RTVSPropertyOp34
 70
     1
102
RTVSPropertyOp35
 70
     1
102
RTVSPropertyOp36
 70
     1
102
RTVSPropertyOp37
 70
     1
102
RTVSPropertyOp38
 70
     1
102
RTVSPropertyOp39
 70
     1
102
RTVSPropertyOp40
 70
     1
102
RTVSPropertyOp41
 70
     1
102
RTVSPropertyOp42
 70
     1
102
RTVSPropertyOp43
 70
     1
102
RTVSPropertyOp44
 70
     1
102
RTVSPropertyOp45
 70
     1
102
RTVSPropertyOp46
 70
     1
102
RTVSPropertyOp47
 70
     1
102
RTVSPropertyOp48
 70
     1
102
RTVSPropertyOp49
 70
     1
102
RTVSPropertyOp50
 70
     1
102
RTVSPropertyOp51
 70
     0
102
RTVSPropertyOp52
 70
     0
102
RTVSPropertyOp53
 70
     1
102
RTVSPropertyOp54
 70
     1
102
RTVSPropertyOp55
 70
     1
102
RTVSPropertyOp56
 70
     1
102
RTVSPropertyOp57
 70
     1
102
RTVSPost2010Prop28
280
     0
102
RTVSPost2010PropOp28
 70
     1
102
RTVSPost2010Prop29
280
     1
102
RTVSPost2010PropOp29
 70
     1
102
RTVSPost2010Prop30
280
     1
102
RTVSPost2010PropOp30
 70
     1
102
RTVSPost2010Prop31
280
     0
102
RTVSPost2010PropOp31
 70
     1
102
RTVSPost2010Prop32
280
     0
102
RTVSPost2010PropOp32
 70
     1
102
RTVSPost2010Prop33
280
     0
102
RTVSPost2010PropOp33
 70
     1
102
RTVSPost2010Prop34
280
     0
102
RTVSPost2010PropOp34
 70
     1
102
RTVSPost2010Prop35
280
     0
102
RTVSPost2010PropOp35
 70
     1
102
RTVSPost2010Prop36
280
     0
102
RTVSPost2010PropOp36
 70
     1
102
RTVSPost2010Prop37
 90
       50
102
RTVSPost2010PropOp37
 70
     1
102
RTVSPost2010Prop38
140
0.0
102
RTVSPost2010PropOp38
 70
     1
102
RTVSPost2010Prop39
140
1.0
102
RTVSPost2010PropOp39
 70
     1
102
RTVSPost2010Prop40
 90
        0
102
RTVSPost2010PropOp40
 70
     1
102
RTVSPost2010Prop41ColorIndex
 90
       18
102
RTVSPost2010Prop41ColorRGB
 90
        0
102
RTVSPost2010PropOp41
 70
     1
102
RTVSPost2010Prop42
 90
       50
102
RTVSPost2010PropOp42
 70
     1
102
RTVSPost2010Prop43
 90
        3
102
RTVSPost2010PropOp43
 70
     1
102
RTVSPost2010Prop44ColorIndex
 90
        5
102
RTVSPost2010Prop44ColorRGB
 90
      255
102
RTVSPost2010PropOp44
 70
     1
102
RTVSPost2010Prop45
280
     0
102
RTVSPost2010PropOp45
 70
     1
102
RTVSPost2010Prop46
 90
       50
102
RTVSPost2010PropOp46
 70
     1
102
RTVSPost2010Prop47
 90
       50
102
RTVSPost2010PropOp47
 70
     1
102
RTVSPost2010Prop48
 90
       50
102
RTVSPost2010PropOp48
 70
     1
102
RTVSPost2010Prop49
280
     0
102
RTVSPost2010PropOp49
 70
     1
102
RTVSPost2010Prop50
 90
       50
102
RTVSPost2010PropOp50
 70
     1
102
RTVSPost2010Prop51ColorIndex
 90
      256
102
RTVSPost2010Prop51ColorRGB
 90
-16777216
102
RTVSPost2010PropOp51
 70
     0
102
RTVSPost2010Prop52
140
1.0
102
RTVSPost2010PropOp52
 70
     0
102
RTVSPost2010Prop53
 90
        2
102
RTVSPost2010PropOp53
 70
     1
102
RTVSPost2010Prop54
  1
strokes_ogs.tif
102
RTVSPost2010PropOp54
 70
     1
102
RTVSPost2010Prop55
280
     0
102
RTVSPost2010PropOp55
 70
     1
102
RTVSPost2010Prop56
140
1.0
102
RTVSPost2010PropOp56
 70
     1
102
RTVSPost2010Prop57
140
1.0
102
RTVSPost2010PropOp57
 70
     1
  0
XRECORD
  5
28D
102
{ACAD_REACTORS
330
28C
102
}
330
28C
100
AcDbXrecord
280
     1
102
RTVSPropertyOp0
 70
     1
102
RTVSPropertyOp1
 70
     1
102
RTVSPropertyOp2
 70
     1
102
RTVSPropertyOp3
 70
     1
102
RTVSPropertyOp4
 70
     1
102
RTVSPropertyOp5
 70
     1
102
RTVSPropertyOp6
 70
     1
102
RTVSPropertyOp7
 70
     1
102
RTVSPropertyOp8
 70
     1
102
RTVSPropertyOp9
 70
     1
102
RTVSPropertyOp10
 70
     1
102
RTVSPropertyOp11
 70
     1
102
RTVSPropertyOp12
 70
     1
102
RTVSPropertyOp13
 70
     1
102
RTVSPropertyOp14
 70
     1
102
RTVSPropertyOp15
 70
     1
102
RTVSPropertyOp16
 70
     1
102
RTVSPropertyOp17
 70
     1
102
RTVSPropertyOp18
 70
     1
102
RTVSPropertyOp19
 70
     1
102
RTVSPropertyOp20
 70
     1
102
RTVSPropertyOp21
 70
     1
102
RTVSPropertyOp22
 70
     1
102
RTVSPropertyOp23
 70
     1
102
RTVSPropertyOp24
 70
     1
102
RTVSPropertyOp25
 70
     1
102
RTVSPropertyOp26
 70
     1
102
RTVSPropertyOp27
 70
     1
102
RTVSPropertyOp28
 70
     1
102
RTVSPropertyOp29
 70
     1
102
RTVSPropertyOp30
 70
     1
102
RTVSPropertyOp31
 70
     1
102
RTVSPropertyOp32
 70
     1
102
RTVSPropertyOp33
 70
     1
102
RTVSPropertyOp34
 70
     1
102
RTVSPropertyOp35
 70
     1
102
RTVSPropertyOp36
 70
     1
102
RTVSPropertyOp37
 70
     1
102
RTVSPropertyOp38
 70
     1
102
RTVSPropertyOp39
 70
     1
102
RTVSPropertyOp40
 70
     1
102
RTVSPropertyOp41
 70
     1
102
RTVSPropertyOp42
 70
     1
102
RTVSPropertyOp43
 70
     1
102
RTVSPropertyOp44
 70
     1
102
RTVSPropertyOp45
 70
     1
102
RTVSPropertyOp46
 70
     1
102
RTVSPropertyOp47
 70
     1
102
RTVSPropertyOp48
 70
     1
102
RTVSPropertyOp49
 70
     1
102
RTVSPropertyOp50
 70
     1
102
RTVSPropertyOp51
 70
     0
102
RTVSPropertyOp52
 70
     0
102
RTVSPropertyOp53
 70
     1
102
RTVSPropertyOp54
 70
     1
102
RTVSPropertyOp55
 70
     1
102
RTVSPropertyOp56
 70
     1
102
RTVSPropertyOp57
 70
     1
102
RTVSPost2010Prop28
280
     0
102
RTVSPost2010PropOp28
 70
     1
102
RTVSPost2010Prop29
280
     1
102
RTVSPost2010PropOp29
 70
     1
102
RTVSPost2010Prop30
280
     1
102
RTVSPost2010PropOp30
 70
     1
102
RTVSPost2010Prop31
280
     0
102
RTVSPost2010PropOp31
 70
     1
102
RTVSPost2010Prop32
280
     0
102
RTVSPost2010PropOp32
 70
     1
102
RTVSPost2010Prop33
280
     0
102
RTVSPost2010PropOp33
 70
     1
102
RTVSPost2010Prop34
280
     0
102
RTVSPost2010PropOp34
 70
     1
102
RTVSPost2010Prop35
280
     0
102
RTVSPost2010PropOp35
 70
     1
102
RTVSPost2010Prop36
280
     0
102
RTVSPost2010PropOp36
 70
     1
102
RTVSPost2010Prop37
 90
       50
102
RTVSPost2010PropOp37
 70
     1
102
RTVSPost2010Prop38
140
0.0
102
RTVSPost2010PropOp38
 70
     1
102
RTVSPost2010Prop39
140
1.0
102
RTVSPost2010PropOp39
 70
     1
102
RTVSPost2010Prop40
 90
        0
102
RTVSPost2010PropOp40
 70
     1
102
RTVSPost2010Prop41ColorIndex
 90
       18
102
RTVSPost2010Prop41ColorRGB
 90
        0
102
RTVSPost2010PropOp41
 70
     1
102
RTVSPost2010Prop42
 90
       50
102
RTVSPost2010PropOp42
 70
     1
102
RTVSPost2010Prop43
 90
        3
102
RTVSPost2010PropOp43
 70
     1
102
RTVSPost2010Prop44ColorIndex
 90
        5
102
RTVSPost2010Prop44ColorRGB
 90
      255
102
RTVSPost2010PropOp44
 70
     1
102
RTVSPost2010Prop45
280
     0
102
RTVSPost2010PropOp45
 70
     1
102
RTVSPost2010Prop46
 90
       50
102
RTVSPost2010PropOp46
 70
     1
102
RTVSPost2010Prop47
 90
       50
102
RTVSPost2010PropOp47
 70
     1
102
RTVSPost2010Prop48
 90
       50
102
RTVSPost2010PropOp48
 70
     1
102
RTVSPost2010Prop49
280
     0
102
RTVSPost2010PropOp49
 70
     1
102
RTVSPost2010Prop50
 90
       50
102
RTVSPost2010PropOp50
 70
     1
102
RTVSPost2010Prop51ColorIndex
 90
      256
102
RTVSPost2010Prop51ColorRGB
 90
-16777216
102
RTVSPost2010PropOp51
 70
     0
102
RTVSPost2010Prop52
140
1.0
102
RTVSPost2010PropOp52
 70
     0
102
RTVSPost2010Prop53
 90
        2
102
RTVSPost2010PropOp53
 70
     1
102
RTVSPost2010Prop54
  1
strokes_ogs.tif
102
RTVSPost2010PropOp54
 70
     1
102
RTVSPost2010Prop55
280
     0
102
RTVSPost2010PropOp55
 70
     1
102
RTVSPost2010Prop56
140
1.0
102
RTVSPost2010PropOp56
 70
     1
102
RTVSPost2010Prop57
140
1.0
102
RTVSPost2010PropOp57
 70
     1
  0
XRECORD
  5
287
102
{ACAD_REACTORS
330
286
102
}
330
286
100
AcDbXrecord
280
     1
102
RTVSPropertyOp0
 70
     1
102
RTVSPropertyOp1
 70
     1
102
RTVSPropertyOp2
 70
     1
102
RTVSPropertyOp3
 70
     1
102
RTVSPropertyOp4
 70
     1
102
RTVSPropertyOp5
 70
     1
102
RTVSPropertyOp6
 70
     1
102
RTVSPropertyOp7
 70
     1
102
RTVSPropertyOp8
 70
     1
102
RTVSPropertyOp9
 70
     1
102
RTVSPropertyOp10
 70
     1
102
RTVSPropertyOp11
 70
     1
102
RTVSPropertyOp12
 70
     1
102
RTVSPropertyOp13
 70
     1
102
RTVSPropertyOp14
 70
     1
102
RTVSPropertyOp15
 70
     1
102
RTVSPropertyOp16
 70
     1
102
RTVSPropertyOp17
 70
     1
102
RTVSPropertyOp18
 70
     1
102
RTVSPropertyOp19
 70
     1
102
RTVSPropertyOp20
 70
     1
102
RTVSPropertyOp21
 70
     1
102
RTVSPropertyOp22
 70
     1
102
RTVSPropertyOp23
 70
     1
102
RTVSPropertyOp24
 70
     1
102
RTVSPropertyOp25
 70
     1
102
RTVSPropertyOp26
 70
     1
102
RTVSPropertyOp27
 70
     1
102
RTVSPropertyOp28
 70
     1
102
RTVSPropertyOp29
 70
     1
102
RTVSPropertyOp30
 70
     1
102
RTVSPropertyOp31
 70
     1
102
RTVSPropertyOp32
 70
     1
102
RTVSPropertyOp33
 70
     1
102
RTVSPropertyOp34
 70
     1
102
RTVSPropertyOp35
 70
     1
102
RTVSPropertyOp36
 70
     1
102
RTVSPropertyOp37
 70
     1
102
RTVSPropertyOp38
 70
     1
102
RTVSPropertyOp39
 70
     1
102
RTVSPropertyOp40
 70
     1
102
RTVSPropertyOp41
 70
     1
102
RTVSPropertyOp42
 70
     1
102
RTVSPropertyOp43
 70
     1
102
RTVSPropertyOp44
 70
     1
102
RTVSPropertyOp45
 70
     1
102
RTVSPropertyOp46
 70
     1
102
RTVSPropertyOp47
 70
     1
102
RTVSPropertyOp48
 70
     1
102
RTVSPropertyOp49
 70
     1
102
RTVSPropertyOp50
 70
     1
102
RTVSPropertyOp51
 70
     0
102
RTVSPropertyOp52
 70
     0
102
RTVSPropertyOp53
 70
     1
102
RTVSPropertyOp54
 70
     1
102
RTVSPropertyOp55
 70
     1
102
RTVSPropertyOp56
 70
     1
102
RTVSPropertyOp57
 70
     1
102
RTVSPost2010Prop28
280
     0
102
RTVSPost2010PropOp28
 70
     1
102
RTVSPost2010Prop29
280
     1
102
RTVSPost2010PropOp29
 70
     1
102
RTVSPost2010Prop30
280
     1
102
RTVSPost2010PropOp30
 70
     1
102
RTVSPost2010Prop31
280
     0
102
RTVSPost2010PropOp31
 70
     1
102
RTVSPost2010Prop32
280
     0
102
RTVSPost2010PropOp32
 70
     1
102
RTVSPost2010Prop33
280
     0
102
RTVSPost2010PropOp33
 70
     1
102
RTVSPost2010Prop34
280
     0
102
RTVSPost2010PropOp34
 70
     1
102
RTVSPost2010Prop35
280
     0
102
RTVSPost2010PropOp35
 70
     1
102
RTVSPost2010Prop36
280
     0
102
RTVSPost2010PropOp36
 70
     1
102
RTVSPost2010Prop37
 90
       50
102
RTVSPost2010PropOp37
 70
     1
102
RTVSPost2010Prop38
140
0.0
102
RTVSPost2010PropOp38
 70
     1
102
RTVSPost2010Prop39
140
1.0
102
RTVSPost2010PropOp39
 70
     1
102
RTVSPost2010Prop40
 90
        0
102
RTVSPost2010PropOp40
 70
     1
102
RTVSPost2010Prop41ColorIndex
 90
       18
102
RTVSPost2010Prop41ColorRGB
 90
        0
102
RTVSPost2010PropOp41
 70
     1
102
RTVSPost2010Prop42
 90
       50
102
RTVSPost2010PropOp42
 70
     1
102
RTVSPost2010Prop43
 90
        3
102
RTVSPost2010PropOp43
 70
     1
102
RTVSPost2010Prop44ColorIndex
 90
        5
102
RTVSPost2010Prop44ColorRGB
 90
      255
102
RTVSPost2010PropOp44
 70
     1
102
RTVSPost2010Prop45
280
     0
102
RTVSPost2010PropOp45
 70
     1
102
RTVSPost2010Prop46
 90
       50
102
RTVSPost2010PropOp46
 70
     1
102
RTVSPost2010Prop47
 90
       50
102
RTVSPost2010PropOp47
 70
     1
102
RTVSPost2010Prop48
 90
       50
102
RTVSPost2010PropOp48
 70
     1
102
RTVSPost2010Prop49
280
     0
102
RTVSPost2010PropOp49
 70
     1
102
RTVSPost2010Prop50
 90
       50
102
RTVSPost2010PropOp50
 70
     1
102
RTVSPost2010Prop51ColorIndex
 90
      256
102
RTVSPost2010Prop51ColorRGB
 90
-16777216
102
RTVSPost2010PropOp51
 70
     0
102
RTVSPost2010Prop52
140
1.0
102
RTVSPost2010PropOp52
 70
     0
102
RTVSPost2010Prop53
 90
        2
102
RTVSPost2010PropOp53
 70
     1
102
RTVSPost2010Prop54
  1
strokes_ogs.tif
102
RTVSPost2010PropOp54
 70
     1
102
RTVSPost2010Prop55
280
     0
102
RTVSPost2010PropOp55
 70
     1
102
RTVSPost2010Prop56
140
1.0
102
RTVSPost2010PropOp56
 70
     1
102
RTVSPost2010Prop57
140
1.0
102
RTVSPost2010PropOp57
 70
     1
  0
XRECORD
  5
289
102
{ACAD_REACTORS
330
288
102
}
330
288
100
AcDbXrecord
280
     1
102
RTVSPropertyOp0
 70
     1
102
RTVSPropertyOp1
 70
     1
102
RTVSPropertyOp2
 70
     1
102
RTVSPropertyOp3
 70
     1
102
RTVSPropertyOp4
 70
     1
102
RTVSPropertyOp5
 70
     1
102
RTVSPropertyOp6
 70
     1
102
RTVSPropertyOp7
 70
     1
102
RTVSPropertyOp8
 70
     1
102
RTVSPropertyOp9
 70
     1
102
RTVSPropertyOp10
 70
     1
102
RTVSPropertyOp11
 70
     1
102
RTVSPropertyOp12
 70
     1
102
RTVSPropertyOp13
 70
     1
102
RTVSPropertyOp14
 70
     1
102
RTVSPropertyOp15
 70
     1
102
RTVSPropertyOp16
 70
     1
102
RTVSPropertyOp17
 70
     1
102
RTVSPropertyOp18
 70
     1
102
RTVSPropertyOp19
 70
     1
102
RTVSPropertyOp20
 70
     1
102
RTVSPropertyOp21
 70
     1
102
RTVSPropertyOp22
 70
     1
102
RTVSPropertyOp23
 70
     1
102
RTVSPropertyOp24
 70
     1
102
RTVSPropertyOp25
 70
     1
102
RTVSPropertyOp26
 70
     1
102
RTVSPropertyOp27
 70
     1
102
RTVSPropertyOp28
 70
     1
102
RTVSPropertyOp29
 70
     1
102
RTVSPropertyOp30
 70
     1
102
RTVSPropertyOp31
 70
     1
102
RTVSPropertyOp32
 70
     1
102
RTVSPropertyOp33
 70
     1
102
RTVSPropertyOp34
 70
     1
102
RTVSPropertyOp35
 70
     1
102
RTVSPropertyOp36
 70
     1
102
RTVSPropertyOp37
 70
     1
102
RTVSPropertyOp38
 70
     1
102
RTVSPropertyOp39
 70
     1
102
RTVSPropertyOp40
 70
     1
102
RTVSPropertyOp41
 70
     1
102
RTVSPropertyOp42
 70
     1
102
RTVSPropertyOp43
 70
     1
102
RTVSPropertyOp44
 70
     1
102
RTVSPropertyOp45
 70
     1
102
RTVSPropertyOp46
 70
     1
102
RTVSPropertyOp47
 70
     1
102
RTVSPropertyOp48
 70
     1
102
RTVSPropertyOp49
 70
     1
102
RTVSPropertyOp50
 70
     1
102
RTVSPropertyOp51
 70
     0
102
RTVSPropertyOp52
 70
     0
102
RTVSPropertyOp53
 70
     1
102
RTVSPropertyOp54
 70
     1
102
RTVSPropertyOp55
 70
     1
102
RTVSPropertyOp56
 70
     1
102
RTVSPropertyOp57
 70
     1
102
RTVSPost2010Prop28
280
     0
102
RTVSPost2010PropOp28
 70
     1
102
RTVSPost2010Prop29
280
     1
102
RTVSPost2010PropOp29
 70
     1
102
RTVSPost2010Prop30
280
     1
102
RTVSPost2010PropOp30
 70
     1
102
RTVSPost2010Prop31
280
     0
102
RTVSPost2010PropOp31
 70
     1
102
RTVSPost2010Prop32
280
     0
102
RTVSPost2010PropOp32
 70
     1
102
RTVSPost2010Prop33
280
     0
102
RTVSPost2010PropOp33
 70
     1
102
RTVSPost2010Prop34
280
     0
102
RTVSPost2010PropOp34
 70
     1
102
RTVSPost2010Prop35
280
     0
102
RTVSPost2010PropOp35
 70
     1
102
RTVSPost2010Prop36
280
     0
102
RTVSPost2010PropOp36
 70
     1
102
RTVSPost2010Prop37
 90
       50
102
RTVSPost2010PropOp37
 70
     1
102
RTVSPost2010Prop38
140
0.0
102
RTVSPost2010PropOp38
 70
     1
102
RTVSPost2010Prop39
140
1.0
102
RTVSPost2010PropOp39
 70
     1
102
RTVSPost2010Prop40
 90
        0
102
RTVSPost2010PropOp40
 70
     1
102
RTVSPost2010Prop41ColorIndex
 90
       18
102
RTVSPost2010Prop41ColorRGB
 90
        0
102
RTVSPost2010PropOp41
 70
     1
102
RTVSPost2010Prop42
 90
       50
102
RTVSPost2010PropOp42
 70
     1
102
RTVSPost2010Prop43
 90
        3
102
RTVSPost2010PropOp43
 70
     1
102
RTVSPost2010Prop44ColorIndex
 90
        5
102
RTVSPost2010Prop44ColorRGB
 90
      255
102
RTVSPost2010PropOp44
 70
     1
102
RTVSPost2010Prop45
280
     0
102
RTVSPost2010PropOp45
 70
     1
102
RTVSPost2010Prop46
 90
       50
102
RTVSPost2010PropOp46
 70
     1
102
RTVSPost2010Prop47
 90
       50
102
RTVSPost2010PropOp47
 70
     1
102
RTVSPost2010Prop48
 90
       50
102
RTVSPost2010PropOp48
 70
     1
102
RTVSPost2010Prop49
280
     0
102
RTVSPost2010PropOp49
 70
     1
102
RTVSPost2010Prop50
 90
       50
102
RTVSPost2010PropOp50
 70
     1
102
RTVSPost2010Prop51ColorIndex
 90
      256
102
RTVSPost2010Prop51ColorRGB
 90
-16777216
102
RTVSPost2010PropOp51
 70
     0
102
RTVSPost2010Prop52
140
1.0
102
RTVSPost2010PropOp52
 70
     0
102
RTVSPost2010Prop53
 90
        2
102
RTVSPost2010PropOp53
 70
     1
102
RTVSPost2010Prop54
  1
strokes_ogs.tif
102
RTVSPost2010PropOp54
 70
     1
102
RTVSPost2010Prop55
280
     0
102
RTVSPost2010PropOp55
 70
     1
102
RTVSPost2010Prop56
140
1.0
102
RTVSPost2010PropOp56
 70
     1
102
RTVSPost2010Prop57
140
1.0
102
RTVSPost2010PropOp57
 70
     1
  0
XRECORD
  5
279
102
{ACAD_REACTORS
330
278
102
}
330
278
100
AcDbXrecord
280
     1
102
RTVSPropertyOp0
 70
     1
102
RTVSPropertyOp1
 70
     1
102
RTVSPropertyOp2
 70
     1
102
RTVSPropertyOp3
 70
     1
102
RTVSPropertyOp4
 70
     1
102
RTVSPropertyOp5
 70
     1
102
RTVSPropertyOp6
 70
     1
102
RTVSPropertyOp7
 70
     1
102
RTVSPropertyOp8
 70
     1
102
RTVSPropertyOp9
 70
     1
102
RTVSPropertyOp10
 70
     1
102
RTVSPropertyOp11
 70
     1
102
RTVSPropertyOp12
 70
     1
102
RTVSPropertyOp13
 70
     1
102
RTVSPropertyOp14
 70
     1
102
RTVSPropertyOp15
 70
     1
102
RTVSPropertyOp16
 70
     1
102
RTVSPropertyOp17
 70
     1
102
RTVSPropertyOp18
 70
     1
102
RTVSPropertyOp19
 70
     1
102
RTVSPropertyOp20
 70
     1
102
RTVSPropertyOp21
 70
     1
102
RTVSPropertyOp22
 70
     1
102
RTVSPropertyOp23
 70
     1
102
RTVSPropertyOp24
 70
     1
102
RTVSPropertyOp25
 70
     1
102
RTVSPropertyOp26
 70
     1
102
RTVSPropertyOp27
 70
     1
102
RTVSPropertyOp28
 70
     1
102
RTVSPropertyOp29
 70
     1
102
RTVSPropertyOp30
 70
     1
102
RTVSPropertyOp31
 70
     1
102
RTVSPropertyOp32
 70
     1
102
RTVSPropertyOp33
 70
     1
102
RTVSPropertyOp34
 70
     1
102
RTVSPropertyOp35
 70
     1
102
RTVSPropertyOp36
 70
     1
102
RTVSPropertyOp37
 70
     1
102
RTVSPropertyOp38
 70
     1
102
RTVSPropertyOp39
 70
     1
102
RTVSPropertyOp40
 70
     1
102
RTVSPropertyOp41
 70
     1
102
RTVSPropertyOp42
 70
     1
102
RTVSPropertyOp43
 70
     1
102
RTVSPropertyOp44
 70
     1
102
RTVSPropertyOp45
 70
     1
102
RTVSPropertyOp46
 70
     1
102
RTVSPropertyOp47
 70
     1
102
RTVSPropertyOp48
 70
     1
102
RTVSPropertyOp49
 70
     1
102
RTVSPropertyOp50
 70
     1
102
RTVSPropertyOp51
 70
     0
102
RTVSPropertyOp52
 70
     0
102
RTVSPropertyOp53
 70
     1
102
RTVSPropertyOp54
 70
     1
102
RTVSPropertyOp55
 70
     1
102
RTVSPropertyOp56
 70
     1
102
RTVSPropertyOp57
 70
     1
102
RTVSPost2010Prop28
280
     0
102
RTVSPost2010PropOp28
 70
     1
102
RTVSPost2010Prop29
280
     1
102
RTVSPost2010PropOp29
 70
     1
102
RTVSPost2010Prop30
280
     1
102
RTVSPost2010PropOp30
 70
     1
102
RTVSPost2010Prop31
280
     0
102
RTVSPost2010PropOp31
 70
     1
102
RTVSPost2010Prop32
280
     0
102
RTVSPost2010PropOp32
 70
     1
102
RTVSPost2010Prop33
280
     0
102
RTVSPost2010PropOp33
 70
     1
102
RTVSPost2010Prop34
280
     0
102
RTVSPost2010PropOp34
 70
     1
102
RTVSPost2010Prop35
280
     0
102
RTVSPost2010PropOp35
 70
     1
102
RTVSPost2010Prop36
280
     0
102
RTVSPost2010PropOp36
 70
     1
102
RTVSPost2010Prop37
 90
       50
102
RTVSPost2010PropOp37
 70
     1
102
RTVSPost2010Prop38
140
0.0
102
RTVSPost2010PropOp38
 70
     1
102
RTVSPost2010Prop39
140
1.0
102
RTVSPost2010PropOp39
 70
     1
102
RTVSPost2010Prop40
 90
        0
102
RTVSPost2010PropOp40
 70
     1
102
RTVSPost2010Prop41ColorIndex
 90
       18
102
RTVSPost2010Prop41ColorRGB
 90
        0
102
RTVSPost2010PropOp41
 70
     1
102
RTVSPost2010Prop42
 90
       50
102
RTVSPost2010PropOp42
 70
     1
102
RTVSPost2010Prop43
 90
        3
102
RTVSPost2010PropOp43
 70
     1
102
RTVSPost2010Prop44ColorIndex
 90
        5
102
RTVSPost2010Prop44ColorRGB
 90
      255
102
RTVSPost2010PropOp44
 70
     1
102
RTVSPost2010Prop45
280
     0
102
RTVSPost2010PropOp45
 70
     1
102
RTVSPost2010Prop46
 90
       50
102
RTVSPost2010PropOp46
 70
     1
102
RTVSPost2010Prop47
 90
       50
102
RTVSPost2010PropOp47
 70
     1
102
RTVSPost2010Prop48
 90
       50
102
RTVSPost2010PropOp48
 70
     1
102
RTVSPost2010Prop49
280
     0
102
RTVSPost2010PropOp49
 70
     1
102
RTVSPost2010Prop50
 90
       50
102
RTVSPost2010PropOp50
 70
     1
102
RTVSPost2010Prop51ColorIndex
 90
      256
102
RTVSPost2010Prop51ColorRGB
 90
-16777216
102
RTVSPost2010PropOp51
 70
     0
102
RTVSPost2010Prop52
140
1.0
102
RTVSPost2010PropOp52
 70
     0
102
RTVSPost2010Prop53
 90
        2
102
RTVSPost2010PropOp53
 70
     1
102
RTVSPost2010Prop54
  1
strokes_ogs.tif
102
RTVSPost2010PropOp54
 70
     1
102
RTVSPost2010Prop55
280
     0
102
RTVSPost2010PropOp55
 70
     1
102
RTVSPost2010Prop56
140
1.0
102
RTVSPost2010PropOp56
 70
     1
102
RTVSPost2010Prop57
140
1.0
102
RTVSPost2010PropOp57
 70
     1
  0
XRECORD
  5
26B
102
{ACAD_REACTORS
330
26A
102
}
330
26A
100
AcDbXrecord
280
     1
102
RTVSPropertyOp0
 70
     1
102
RTVSPropertyOp1
 70
     1
102
RTVSPropertyOp2
 70
     1
102
RTVSPropertyOp3
 70
     1
102
RTVSPropertyOp4
 70
     1
102
RTVSPropertyOp5
 70
     1
102
RTVSPropertyOp6
 70
     1
102
RTVSPropertyOp7
 70
     1
102
RTVSPropertyOp8
 70
     1
102
RTVSPropertyOp9
 70
     1
102
RTVSPropertyOp10
 70
     1
102
RTVSPropertyOp11
 70
     1
102
RTVSPropertyOp12
 70
     1
102
RTVSPropertyOp13
 70
     1
102
RTVSPropertyOp14
 70
     1
102
RTVSPropertyOp15
 70
     1
102
RTVSPropertyOp16
 70
     1
102
RTVSPropertyOp17
 70
     1
102
RTVSPropertyOp18
 70
     1
102
RTVSPropertyOp19
 70
     1
102
RTVSPropertyOp20
 70
     1
102
RTVSPropertyOp21
 70
     1
102
RTVSPropertyOp22
 70
     1
102
RTVSPropertyOp23
 70
     1
102
RTVSPropertyOp24
 70
     1
102
RTVSPropertyOp25
 70
     1
102
RTVSPropertyOp26
 70
     1
102
RTVSPropertyOp27
 70
     1
102
RTVSPropertyOp28
 70
     1
102
RTVSPropertyOp29
 70
     1
102
RTVSPropertyOp30
 70
     1
102
RTVSPropertyOp31
 70
     1
102
RTVSPropertyOp32
 70
     1
102
RTVSPropertyOp33
 70
     1
102
RTVSPropertyOp34
 70
     1
102
RTVSPropertyOp35
 70
     1
102
RTVSPropertyOp36
 70
     1
102
RTVSPropertyOp37
 70
     1
102
RTVSPropertyOp38
 70
     1
102
RTVSPropertyOp39
 70
     1
102
RTVSPropertyOp40
 70
     1
102
RTVSPropertyOp41
 70
     1
102
RTVSPropertyOp42
 70
     1
102
RTVSPropertyOp43
 70
     1
102
RTVSPropertyOp44
 70
     1
102
RTVSPropertyOp45
 70
     1
102
RTVSPropertyOp46
 70
     1
102
RTVSPropertyOp47
 70
     1
102
RTVSPropertyOp48
 70
     1
102
RTVSPropertyOp49
 70
     1
102
RTVSPropertyOp50
 70
     1
102
RTVSPropertyOp51
 70
     0
102
RTVSPropertyOp52
 70
     0
102
RTVSPropertyOp53
 70
     1
102
RTVSPropertyOp54
 70
     1
102
RTVSPropertyOp55
 70
     1
102
RTVSPropertyOp56
 70
     1
102
RTVSPropertyOp57
 70
     1
102
RTVSPost2010Prop28
280
     0
102
RTVSPost2010PropOp28
 70
     1
102
RTVSPost2010Prop29
280
     1
102
RTVSPost2010PropOp29
 70
     1
102
RTVSPost2010Prop30
280
     1
102
RTVSPost2010PropOp30
 70
     1
102
RTVSPost2010Prop31
280
     0
102
RTVSPost2010PropOp31
 70
     1
102
RTVSPost2010Prop32
280
     0
102
RTVSPost2010PropOp32
 70
     1
102
RTVSPost2010Prop33
280
     0
102
RTVSPost2010PropOp33
 70
     1
102
RTVSPost2010Prop34
280
     0
102
RTVSPost2010PropOp34
 70
     1
102
RTVSPost2010Prop35
280
     0
102
RTVSPost2010PropOp35
 70
     1
102
RTVSPost2010Prop36
280
     0
102
RTVSPost2010PropOp36
 70
     1
102
RTVSPost2010Prop37
 90
       50
102
RTVSPost2010PropOp37
 70
     1
102
RTVSPost2010Prop38
140
0.0
102
RTVSPost2010PropOp38
 70
     1
102
RTVSPost2010Prop39
140
1.0
102
RTVSPost2010PropOp39
 70
     1
102
RTVSPost2010Prop40
 90
        0
102
RTVSPost2010PropOp40
 70
     1
102
RTVSPost2010Prop41ColorIndex
 90
       18
102
RTVSPost2010Prop41ColorRGB
 90
        0
102
RTVSPost2010PropOp41
 70
     1
102
RTVSPost2010Prop42
 90
       50
102
RTVSPost2010PropOp42
 70
     1
102
RTVSPost2010Prop43
 90
        3
102
RTVSPost2010PropOp43
 70
     1
102
RTVSPost2010Prop44ColorIndex
 90
        5
102
RTVSPost2010Prop44ColorRGB
 90
      255
102
RTVSPost2010PropOp44
 70
     1
102
RTVSPost2010Prop45
280
     0
102
RTVSPost2010PropOp45
 70
     1
102
RTVSPost2010Prop46
 90
       50
102
RTVSPost2010PropOp46
 70
     1
102
RTVSPost2010Prop47
 90
       50
102
RTVSPost2010PropOp47
 70
     1
102
RTVSPost2010Prop48
 90
       50
102
RTVSPost2010PropOp48
 70
     1
102
RTVSPost2010Prop49
280
     0
102
RTVSPost2010PropOp49
 70
     1
102
RTVSPost2010Prop50
 90
       50
102
RTVSPost2010PropOp50
 70
     1
102
RTVSPost2010Prop51ColorIndex
 90
      256
102
RTVSPost2010Prop51ColorRGB
 90
-16777216
102
RTVSPost2010PropOp51
 70
     0
102
RTVSPost2010Prop52
140
1.0
102
RTVSPost2010PropOp52
 70
     0
102
RTVSPost2010Prop53
 90
        2
102
RTVSPost2010PropOp53
 70
     1
102
RTVSPost2010Prop54
  1
strokes_ogs.tif
102
RTVSPost2010PropOp54
 70
     1
102
RTVSPost2010Prop55
280
     0
102
RTVSPost2010PropOp55
 70
     1
102
RTVSPost2010Prop56
140
1.0
102
RTVSPost2010PropOp56
 70
     1
102
RTVSPost2010Prop57
140
1.0
102
RTVSPost2010PropOp57
 70
     1
  0
XRECORD
  5
28B
102
{ACAD_REACTORS
330
28A
102
}
330
28A
100
AcDbXrecord
280
     1
102
RTVSPropertyOp0
 70
     1
102
RTVSPropertyOp1
 70
     1
102
RTVSPropertyOp2
 70
     1
102
RTVSPropertyOp3
 70
     1
102
RTVSPropertyOp4
 70
     1
102
RTVSPropertyOp5
 70
     1
102
RTVSPropertyOp6
 70
     1
102
RTVSPropertyOp7
 70
     1
102
RTVSPropertyOp8
 70
     1
102
RTVSPropertyOp9
 70
     1
102
RTVSPropertyOp10
 70
     1
102
RTVSPropertyOp11
 70
     1
102
RTVSPropertyOp12
 70
     1
102
RTVSPropertyOp13
 70
     1
102
RTVSPropertyOp14
 70
     1
102
RTVSPropertyOp15
 70
     1
102
RTVSPropertyOp16
 70
     1
102
RTVSPropertyOp17
 70
     1
102
RTVSPropertyOp18
 70
     1
102
RTVSPropertyOp19
 70
     1
102
RTVSPropertyOp20
 70
     1
102
RTVSPropertyOp21
 70
     1
102
RTVSPropertyOp22
 70
     1
102
RTVSPropertyOp23
 70
     1
102
RTVSPropertyOp24
 70
     1
102
RTVSPropertyOp25
 70
     1
102
RTVSPropertyOp26
 70
     1
102
RTVSPropertyOp27
 70
     1
102
RTVSPropertyOp28
 70
     1
102
RTVSPropertyOp29
 70
     1
102
RTVSPropertyOp30
 70
     1
102
RTVSPropertyOp31
 70
     1
102
RTVSPropertyOp32
 70
     1
102
RTVSPropertyOp33
 70
     1
102
RTVSPropertyOp34
 70
     1
102
RTVSPropertyOp35
 70
     1
102
RTVSPropertyOp36
 70
     1
102
RTVSPropertyOp37
 70
     1
102
RTVSPropertyOp38
 70
     1
102
RTVSPropertyOp39
 70
     1
102
RTVSPropertyOp40
 70
     1
102
RTVSPropertyOp41
 70
     1
102
RTVSPropertyOp42
 70
     1
102
RTVSPropertyOp43
 70
     1
102
RTVSPropertyOp44
 70
     1
102
RTVSPropertyOp45
 70
     1
102
RTVSPropertyOp46
 70
     1
102
RTVSPropertyOp47
 70
     1
102
RTVSPropertyOp48
 70
     1
102
RTVSPropertyOp49
 70
     1
102
RTVSPropertyOp50
 70
     1
102
RTVSPropertyOp51
 70
     0
102
RTVSPropertyOp52
 70
     0
102
RTVSPropertyOp53
 70
     1
102
RTVSPropertyOp54
 70
     1
102
RTVSPropertyOp55
 70
     1
102
RTVSPropertyOp56
 70
     1
102
RTVSPropertyOp57
 70
     1
102
RTVSPost2010Prop28
280
     0
102
RTVSPost2010PropOp28
 70
     1
102
RTVSPost2010Prop29
280
     1
102
RTVSPost2010PropOp29
 70
     1
102
RTVSPost2010Prop30
280
     1
102
RTVSPost2010PropOp30
 70
     1
102
RTVSPost2010Prop31
280
     0
102
RTVSPost2010PropOp31
 70
     1
102
RTVSPost2010Prop32
280
     0
102
RTVSPost2010PropOp32
 70
     1
102
RTVSPost2010Prop33
280
     0
102
RTVSPost2010PropOp33
 70
     1
102
RTVSPost2010Prop34
280
     0
102
RTVSPost2010PropOp34
 70
     1
102
RTVSPost2010Prop35
280
     0
102
RTVSPost2010PropOp35
 70
     1
102
RTVSPost2010Prop36
280
     0
102
RTVSPost2010PropOp36
 70
     1
102
RTVSPost2010Prop37
 90
       50
102
RTVSPost2010PropOp37
 70
     1
102
RTVSPost2010Prop38
140
0.0
102
RTVSPost2010PropOp38
 70
     1
102
RTVSPost2010Prop39
140
1.0
102
RTVSPost2010PropOp39
 70
     1
102
RTVSPost2010Prop40
 90
        0
102
RTVSPost2010PropOp40
 70
     1
102
RTVSPost2010Prop41ColorIndex
 90
       18
102
RTVSPost2010Prop41ColorRGB
 90
        0
102
RTVSPost2010PropOp41
 70
     1
102
RTVSPost2010Prop42
 90
       50
102
RTVSPost2010PropOp42
 70
     1
102
RTVSPost2010Prop43
 90
        3
102
RTVSPost2010PropOp43
 70
     1
102
RTVSPost2010Prop44ColorIndex
 90
        5
102
RTVSPost2010Prop44ColorRGB
 90
      255
102
RTVSPost2010PropOp44
 70
     1
102
RTVSPost2010Prop45
280
     0
102
RTVSPost2010PropOp45
 70
     1
102
RTVSPost2010Prop46
 90
       50
102
RTVSPost2010PropOp46
 70
     1
102
RTVSPost2010Prop47
 90
       50
102
RTVSPost2010PropOp47
 70
     1
102
RTVSPost2010Prop48
 90
       50
102
RTVSPost2010PropOp48
 70
     1
102
RTVSPost2010Prop49
280
     0
102
RTVSPost2010PropOp49
 70
     1
102
RTVSPost2010Prop50
 90
       50
102
RTVSPost2010PropOp50
 70
     1
102
RTVSPost2010Prop51ColorIndex
 90
      256
102
RTVSPost2010Prop51ColorRGB
 90
-16777216
102
RTVSPost2010PropOp51
 70
     0
102
RTVSPost2010Prop52
140
1.0
102
RTVSPost2010PropOp52
 70
     0
102
RTVSPost2010Prop53
 90
        2
102
RTVSPost2010PropOp53
 70
     1
102
RTVSPost2010Prop54
  1
strokes_ogs.tif
102
RTVSPost2010PropOp54
 70
     1
102
RTVSPost2010Prop55
280
     0
102
RTVSPost2010PropOp55
 70
     1
102
RTVSPost2010Prop56
140
1.0
102
RTVSPost2010PropOp56
 70
     1
102
RTVSPost2010Prop57
140
1.0
102
RTVSPost2010PropOp57
 70
     1
  0
ENDSEC
  0
EOF
